img image001 image001 image001 image001 image001 image001 image001 image001 image001 image001 image001 image001 image001 image001 image001

Planets Sun Sun Sun
Статистика раздачи
Автор: Снежана | Размер: 695.19 МБ | Добавлен: 26 июл 2013
Раздают: 28    Качают: 7
Скачать торрент
Скачать торрент
Описание торрента

СообщениеДобавлено: 26 июл 2013 

#77



Информация о фильме:

Название: Подружка года журнала Плэйбой 1997 Виктория Сильвстедт
Оригинальное название: Playboy Video Centerfold: Playmate of the Year Victoria Silvstedt
Год выхода: 1997
Жанр: Эротика, Музыкальный, Документальный

Режиссер: Скотт Аллен /Scott Allen/
Оператор: Стив Конте /Steve Conte/

В ролях: Виктория Сильвстедт /Victoria Silvstedt/, Шона Сэнд /Shauna Sand/, Кристофер Тичи /Christopher Tichy/, Лжошуа Голдман /Joshua Goldman/, Уильям Фергюсон /William Ferguson/, и другие...

A pleasure to unwrap as Playboy's gifted Miss December, Scandinavian beauty Victoria Silvstedt is our 1997 Playmate of the Year. At six feet plus in high heels, with porcelain skin, platinum hair and perfect curves, this former Miss Sweden is a scorcher. Now jet-setting between Paris and Los Angeles, and modeling worldwide, Victoria is a Playmate of the Year of global proportions.

Raised in a small Swedish village where she dreamed of making it big in America, the ultimate blonde is a Cinderella story come true. Let her tuck you in with her own private bed time story, as she seduces one lucky Prince Charming in an erotic take-off of the classic fairy tale. You'll also enjoy a picture-perfect dance number, sexy shenanigans with her gorgeous sister Veronica, a steamy country-style date, and so much more.

Breathtaking from head to toe, it's easy to see why Victoria is Sweden's hottest export... and the world's newest sensation!

Playmate Bonus: Shauna Sand
Married to Renegade star Lorenzo Lamas, Playboy's sultry Miss May Shauna Sand is a striking combination of beauty, body and brains. A sought-after model and a graduate of the American University of Paris, this California native is well on her way.

Страна:
Выпущено: Michael Trikilis Productions
Продолжительность: 01:00:41
Перевод: Не требуется



Качество: DVDRip-AVC (Исходник DVD5)
Формат: AVC
Видео кодек: H.264
Аудио кодек: AC3
Видео: MPEG4 Video (H264) 704x536, 25.00fps, ~1382 Kbps, 0.143 Bits/(Pixel*Frame)
Аудио: 48 kHz, Dolby AC3, 2 channels, ~224 Kbps
Субтитры: Нет

Format : Matroska
File size : 695 MiB
Duration : 1h 0mn
Overall bit rate : 1 602 Kbps
Encoded date : UTC 2010-02-16 08:10:23
Writing application : mkvmerge v3.1.0 ('Happy up here') built on Jan 19 2010 12:09:24
Writing library : libebml v0.7.9 + libmatroska v0.8.1

Video
ID : 1
Format : AVC
Format/Info : Advanced Video Codec
Format profile : Main@L4.0
Format settings, CABAC : Yes
Format settings, ReFrames : 2 frames
Muxing mode : Container profile=Unknown@4.0
Codec ID : V_MPEG4/ISO/AVC
Duration : 1h 0mn
Bit rate : 1 346 Kbps
Nominal bit rate : 1 382 Kbps
Width : 704 pixels
Height : 536 pixels
Display aspect ratio : 4:3
Frame rate : 25.000 fps
Resolution : 8 bits
Colorimetry : 4:2:0
Scan type : Progressive
Bits/(Pixel*Frame) : 0.143
Stream size : 584 MiB (84%)
Title : Playboy Video Centerfold ~ Victoria Silvstedt - 1997 Playmate Of The Year (1997) DVD5
Writing library : x264 core 66 r1092 60f4cd8
Encoding settings : cabac=1 / ref=1 / deblock=0:0:0 / analyse=0x1:0x111 / me=dia / subme=2 / psy_rd=0.0:0.0 / mixed_ref=0 / me_range=8 / chroma_me=0 / trellis=0 / 8x8dct=0 / cqm=0 / deadzone=21,11 / chroma_qp_offset=0 / threads=3 / nr=0 / decimate=1 / mbaff=0 / bframes=2 / b_pyramid=0 / b_adapt=0 / b_bias=0 / direct=1 / wpredb=0 / keyint=250 / keyint_min=25 / scenecut=40(pre) / rc=cbr / bitrate=1382 / ratetol=1.0 / qcomp=0.60 / qpmin=10 / qpmax=51 / qpstep=4 / vbv_maxrate=25000 / vbv_bufsize=14000 / ip_ratio=1.40 / pb_ratio=1.30 / aq=1:1.00

Audio
ID : 2
Format : AC-3
Format/Info : Audio Coding 3
Codec ID : A_AC3
Duration : 1h 0mn
Bit rate mode : Constant
Bit rate : 224 Kbps
Channel(s) : 2 channels
Channel positions : L R
Sampling rate : 48.0 KHz
Stream size : 97.2 MiB (14%)




















   Похожие торренты   Торрент   Размер 
В этой теме нет новых непрочитанных сообщений. Playboy - Playmate Of The Year Victoria Silvstedt (1997) DVD5

8 | 13

2.91 ГБ

В этой теме нет новых непрочитанных сообщений. Playboy - Playmate Of The Year (1997-1999) DVD9

14 | 9

7.31 ГБ

В этой теме нет новых непрочитанных сообщений. Плейбой - Видеокалендари / Playboy - Playmate Video Calendar's (1996-1997) DVD9

4 | 32

6.22 ГБ

В этой теме нет новых непрочитанных сообщений. Playboy - Playmate Of The Year (1990-1993) DVD9

8 | 7

6.74 ГБ

В этой теме нет новых непрочитанных сообщений. Playboy - Playmate Of The Year (1994-1996) DVD9

2 | 9

6.08 ГБ

В этой теме нет новых непрочитанных сообщений. Playboy Video Playmate Calendar 1987-1989 (1986-1988) DVDRip от KinoRay & Sheikn

135 | 48

2.78 ГБ

В этой теме нет новых непрочитанных сообщений. Playboy Video Playmate Calendar 1990-1999 (1989-1998) DVDRip от KinoRay & Sheikn

160 | 42

7.21 ГБ




Вы не можете начинать темы
Вы не можете отвечать на сообщения
Вы не можете редактировать свои сообщения
Вы не можете удалять свои сообщения
Вы не можете добавлять вложения

Перейти:  
Для Мосгорсуда, Роскомнадзора и рекламодателей: mosgorsud-torrent[собачка]yandex.ru
 Вход
ppkBB3cker v.2 © 2008-2014 @ PPK
[ Time : 0.269s | 15 Queries | GZIP : Off ]

Торрент трекер RUTOR.IN, Не можете зайти на rutor.org? Какой новый адрес рутор? Какое зеркало рутор? Не работает rutor.org и зеркала? Тогда наш торрент специально для вас. Rutor.in неофициальное зеркало rutor. В случае если у Вас заблокирован rutor или вдруг Вы не можете на него зайти, то Вы без труда сможете скачать бесплатно и без рекламы последние новинки кино, игр, сериалов и прочего у нас, на Rutor.in. Не нужно использовать прокси, чтобы зайти на рутор, достаточно воспользоваться нашим ресурсом. Все новые фильмы, игры, сериалы, книги и музыка за 2013 и 2014 годы через торрент бесплатно. Скачивайте фильмы в хорошем качестве, игры для пк, xbox, playstation без регистрации. У нас вы найдете новые Зарубежные сериалы и Русские сериалы 2013, 2014, 2015 годов. Оставайтесь с нами, качайте любимые фильмы, игры, сериалы, книги и музыку.
cron