img image001 image001 image001 image001 image001 image001 image001 image001 image001 image001 image001 image001 image001 image001 image001

Planets Sun Sun Sun
Статистика раздачи
Автор: Снежана | Размер: 695.15 МБ | Добавлен: 25 июл 2013
Раздают: 0    Качают: 5
Скачать торрент
Скачать торрент
Описание торрента

СообщениеДобавлено: 25 июл 2013 

#77

[color=red]Не рекомендуется к просмотру лицам, не достигшим

Информация о фильме:

Название: Плэйбой: Босые красавицы
Оригинальное название: Playboy: Barefoot Beauties
Год выхода: 2002
Жанр: Эротика, Музыкальный

Режиссер: Скотт Аллен /Scott Allen/
Оператор: Гари Палмер /Gary Palmer/

В ролях: Хезер Каролин /Heather Carolin/, Кристи Клайн /Kristi Cline/, Джэми Феррелл /Jami Ferrell/, Стефани Генрих /Stephanie Heinrich/, Тина Джордан /Tina Jordan/, Николь Нараин /Nicole Narain/, Критси Шейк /Christi Shake/, Кимберли Стэнфилд /Kimberley Stanfield/, Шеннон Стюарт /Shannon Stewart/, Ирина Воронина /Irina Voronina/, Дженнифер Уэлкотт /Jennifer Walcott/...

Описание: Вы никогда не замечали, что без обуви жизнь кажется немного легче? Особенно когда эти соблазнительные босые ножки принадлежат самым темпераментным девушкам в мире! И не только ножки. Сексуальные от головы до пят, одетые солнцем и совсем не одетые, они покажут вам все, чем их одарила природа. И даже больше!

Страна:
Выпущено: Playboy Entertainment Group
Продолжительность: 00:52:07
Перевод: Не требуется



Качество: DVDRip-AVC (Исходник DVD5)
Формат: AVC
Видео кодек: H.264
Аудио кодек: AC3
Видео: MPEG4 Video (H264) 704x536, 23.98fps, ~1677 Kbps, 0.181 Bits/(Pixel*Frame)
Аудио: 48 kHz, Dolby AC3, 2 channels, ~192 Kbps
Субтитры: Нет

Format : Matroska
File size : 695 MiB
Duration : 52mn 8s
Overall bit rate : 1 864 Kbps
Encoded date : UTC 2010-02-15 13:34:08
Writing application : mkvmerge v2.4.1 ('Use Me') built on Dec 5 2008 15:43:32
Writing library : libebml v0.7.7 + libmatroska v0.8.1

Video
ID : 1
Format : AVC
Format/Info : Advanced Video Codec
Format profile : Main@L4.0
Format settings, CABAC : Yes
Format settings, ReFrames : 2 frames
Muxing mode : Container profile=Unknown@4.0
Codec ID : V_MPEG4/ISO/AVC
Duration : 52mn 4s
Bit rate : 1 635 Kbps
Nominal bit rate : 1 677 Kbps
Width : 704 pixels
Height : 536 pixels
Display aspect ratio : 4:3
Frame rate : 23.976 fps
Resolution : 8 bits
Colorimetry : 4:2:0
Scan type : Progressive
Bits/(Pixel*Frame) : 0.181
Stream size : 609 MiB (88%)
Title : Playboy ~ Barefoot Beauties (2002) DVD5
Writing library : x264 core 66 r1092 60f4cd8
Encoding settings : cabac=1 / ref=1 / deblock=0:0:0 / analyse=0x1:0x111 / me=dia / subme=2 / psy_rd=0.0:0.0 / mixed_ref=0 / me_range=8 / chroma_me=0 / trellis=0 / 8x8dct=0 / cqm=0 / deadzone=21,11 / chroma_qp_offset=0 / threads=3 / nr=0 / decimate=1 / mbaff=0 / bframes=2 / b_pyramid=0 / b_adapt=0 / b_bias=0 / direct=1 / wpredb=0 / keyint=250 / keyint_min=25 / scenecut=40(pre) / rc=cbr / bitrate=1677 / ratetol=1.0 / qcomp=0.60 / qpmin=10 / qpmax=51 / qpstep=4 / vbv_maxrate=25000 / vbv_bufsize=14000 / ip_ratio=1.40 / pb_ratio=1.30 / aq=1:1.00

Audio
ID : 2
Format : AC-3
Format/Info : Audio Coding 3
Format profile : Dolby Digital
Codec ID : A_AC3
Duration : 52mn 8s
Bit rate mode : Constant
Bit rate : 192 Kbps
Channel(s) : 2 channels
Channel positions : L R
Sampling rate : 48.0 KHz
Stream size : 71.6 MiB (10%)
Language : English



















   Похожие торренты   Торрент   Размер 
В этой теме нет новых непрочитанных сообщений. Playboy - Barefoot Beauties (2002) DVDRip от R.G. Mega Best

21 | 6

1.38 ГБ

В этой теме нет новых непрочитанных сообщений. Playboy - Barefoot Beauties (2002) DVD5

14 | 7

2.43 ГБ

В этой теме нет новых непрочитанных сообщений. Плэйбой: Сексуальные девочки по соседству / Playboy: Sexy Girls Next Door (2000) SATRip от R.G.Mega Best

69 | 19

389.92 МБ

В этой теме нет новых непрочитанных сообщений. Искусительницы / Playboy: Roommates (2002) DVDRip-AVC

453 | 252

1.36 ГБ

В этой теме нет новых непрочитанных сообщений. Искусительницы / Playboy: Roommates (2002) DVDRip от KinoRay & Sheikn | P2

258 | 61

1.06 ГБ

В этой теме нет новых непрочитанных сообщений. Плейбой - Красотки в постели / Playboy - Playmates In Bed (2002) DVDRip

18 | 12

714.85 МБ

В этой теме нет новых непрочитанных сообщений. Плейбой - Дикарки / Playboy: Wet & Wild Live! (2002) DVDRip от KinoRay & Sheikn | Р1

341 | 83

953.99 МБ




Вы не можете начинать темы
Вы не можете отвечать на сообщения
Вы не можете редактировать свои сообщения
Вы не можете удалять свои сообщения
Вы не можете добавлять вложения

Перейти:  
Для Мосгорсуда, Роскомнадзора и рекламодателей: mosgorsud-torrent[собачка]yandex.ru
 Вход
ppkBB3cker v.2 © 2008-2014 @ PPK
[ Time : 0.034s | 15 Queries | GZIP : Off ]

Торрент трекер RUTOR.IN, Не можете зайти на rutor.org? Какой новый адрес рутор? Какое зеркало рутор? Не работает rutor.org и зеркала? Тогда наш торрент специально для вас. Rutor.in неофициальное зеркало rutor. В случае если у Вас заблокирован rutor или вдруг Вы не можете на него зайти, то Вы без труда сможете скачать бесплатно и без рекламы последние новинки кино, игр, сериалов и прочего у нас, на Rutor.in. Не нужно использовать прокси, чтобы зайти на рутор, достаточно воспользоваться нашим ресурсом. Все новые фильмы, игры, сериалы, книги и музыка за 2013 и 2014 годы через торрент бесплатно. Скачивайте фильмы в хорошем качестве, игры для пк, xbox, playstation без регистрации. У нас вы найдете новые Зарубежные сериалы и Русские сериалы 2013, 2014, 2015 годов. Оставайтесь с нами, качайте любимые фильмы, игры, сериалы, книги и музыку.
cron