img image001 image001 image001 image001 image001 image001 image001 image001 image001 image001 image001 image001 image001 image001 image001

Planets Sun Sun Sun
Статистика раздачи
Автор: Снежана | Размер: 2.17 ГБ | Добавлен: 25 июл 2013
Раздают: 110    Качают: 11
Скачать торрент
Скачать торрент
Описание торрента

СообщениеДобавлено: 25 июл 2013 



Камин / HDScape: Fireplace - Visions Of Tranquility (2008) [релакс, HDRip]

Страна: США
Жанр: релакс
Год выпуска: 2008
Продолжительность: 01:47:42

Перевод: Не требуется
Cубтитры: нет
Режиссер: Ричард Диркс / Richard Diercks

В ролях: Дрова, огонь, кирпичи

Описание: Отличное видео горящих каминов для релаксации, в стиле HDScape
СЭМПЛ

Автор рипа : chopper887

Качество видео: HDRip(Исходник BD 1080)
Формат видео: AVI

Видео: 720x400 (1.80:1), 23.976 fps, XviD build 50 ~2201 kbps avg, 0.32 bit/pixel
Аудио: AC3 448kbps 48kHz 6 ch (классическая музыка)
Аудио: AC3 192kbps 48kHz 2 ch (звук камина)

File: Kamin.chopper887.avi
Filesize: 2224.91 Mb ( 2 332 991 488 bytes )
Play length: 01:47:42.716 (154950 frames)
Subtitles: Not Present
Video: 720x400 (1.80:1), 23.976 fps, XviD build 50 ~2201 kbps avg, 0.32 bit/pixel
Audio #1: 48 kHz, AC3 Dolby Digital, 3/2 (L,C,R,l,r) + LFE ch, ~448 kbps
Audio #2: 48 kHz, AC3 Dolby Digital, 2/0 (L,R) ch, ~192 kbps

General
Complete name : D:Kamin.chopper887.avi
Format : AVI
Format/Info : Audio Video Interleave
File size : 2.17 GiB
Duration : 1h 47mn
Overall bit rate : 2 888 Kbps
Writing application : VirtualDubMod 1.5.10.3 | www.virtualdub-fr.org || (build 2550/release)
Writing library : VirtualDubMod build 2550/release

Video
ID : 0
Format : MPEG-4 Visual
Format profile : Advanced Simple@L5
Format settings, BVOP : Yes
Format settings, QPel : No
Format settings, GMC : No warppoints
Format settings, Matrix : Custom
Codec ID : XVID
Codec ID/Hint : XviD
Duration : 1h 47mn
Bit rate : 2 203 Kbps
Width : 720 pixels
Height : 400 pixels
Display aspect ratio : 16:9
Frame rate : 23.976 fps
Color space : YUV
Chroma subsampling : 4:2:0
Bit depth : 8 bits
Scan type : Progressive
Compression mode : Lossy
Bits/(Pixel*Frame) : 0.319
Stream size : 1.66 GiB (76%)
Writing library : XviD 1.2.1 (UTC 2008-12-04)

Audio #1
ID : 1
Format : AC-3
Format/Info : Audio Coding 3
Mode extension : CM (complete main)
Codec ID : 2000
Duration : 1h 47mn
Bit rate mode : Constant
Bit rate : 448 Kbps
Channel(s) : 6 channels
Channel positions : Front: L C R, Side: L R, LFE
Sampling rate : 48.0 KHz
Bit depth : 16 bits
Compression mode : Lossy
Stream size : 345 MiB (16%)
Alignment : Split accross interleaves
Interleave, duration : 42 ms (1.00 video frame)
Interleave, preload duration : 500 ms

Audio #2
ID : 2
Format : AC-3
Format/Info : Audio Coding 3
Mode extension : CM (complete main)
Codec ID : 2000
Duration : 1h 47mn
Bit rate mode : Constant
Bit rate : 192 Kbps
Channel(s) : 2 channels
Channel positions : Front: L R
Sampling rate : 48.0 KHz
Bit depth : 16 bits
Compression mode : Lossy
Stream size : 172 MiB (8%)
Alignment : Split accross interleaves
Interleave, duration : 42 ms (1.00 video frame)
Interleave, preload duration : 500 ms




   Похожие торренты   Торрент   Размер 
В этой теме нет новых непрочитанных сообщений. 5 чувств страха / Chilling Visions: 5 Senses of Fear (2013) HDRip | P

0 | 0

1.37 ГБ

В этой теме нет новых непрочитанных сообщений. Гребля и спокойствие / Paddling Tranquility (2019) WEBRip 2160p

0 | 0

535.5 МБ

В этой теме нет новых непрочитанных сообщений. ADX - Étranges Visions (2021) FLAC

0 | 0

300.7 МБ

В этой теме нет новых непрочитанных сообщений. Idle Threat - Blurred Visions (2021) FLAC

0 | 0

261.96 МБ

В этой теме нет новых непрочитанных сообщений. Her Highness - Visions of a Lower Life (2021) FLAC

0 | 0

276.85 МБ

В этой теме нет новых непрочитанных сообщений. Звёздные войны: Видения / Star Wars: Visions [S01] (2021) WEBRip 1080p | VHSник

0 | 0

6.63 ГБ

В этой теме нет новых непрочитанных сообщений. Звездные войны: Видения / Star Wars: Visions [S01] (2021) WEB-DLRip 720p | RG.Paravozik

30 | 0

3.04 ГБ




Вы не можете начинать темы
Вы не можете отвечать на сообщения
Вы не можете редактировать свои сообщения
Вы не можете удалять свои сообщения
Вы не можете добавлять вложения

Перейти:  
Контактная информация: rstracker[пёсик]yandex.ru
 Вход
ppkBB3cker v.2 © 2008-2014 @ PPK
[ Time : 0.126s | 15 Queries | GZIP : Off ]

cron