img image001 image001 image001 image001 image001 image001 image001 image001 image001 image001 image001 image001 image001 image001 image001

Planets Sun Sun Sun
Статистика раздачи
Автор: Снежана | Размер: 91.85 МБ | Добавлен: 26 июл 2013
Раздают: 1    Качают: 2
Скачать торрент
Скачать торрент
Описание торрента

СообщениеДобавлено: 26 июл 2013 

#77
Год выхода: 2009
Жанр: Документальный, семинар, лекция, религия, христианство
Продолжительность: 00:29:00
Перевод: не требуется
Режиссер: Заруба Антон
Дополнительно: Обвиняется дьявол

Файл
Формат: AVI
Видео: (720x576),382 Кбит/сек, 5:4,25,000 кадр/сек
Звук: MP3,35,8 Кбит/сек,2 канала(ов),32,0 КГц
Описание:
Данный фильм не ставит своей целью оскорбить чьи-либо религиозные чувства или человеческое достоинство, но напротив - возвысить в каждом человеке достоинство Божьего образа и чистоту. Факты истории - упрямая вещь, и поэтому будем безпристрастны в исследовании темы Пасхи. Ибо это есть наиважнейший вопрос в спасении человека от греха к вечной жизни во Христе Иисусе. Господь грядет! Каждый человек имеет право на собственную систему ценностей и право верить согласно своей совести. Поэтому и данный фильм не посягает на Вашу личную свободу выбора. Единственное наше желание, чтобы Ваш выбор был соделан в Боге, согласно Его Святому Слову.


Видео
Идентификатор : 0
Формат : MPEG-4 Visual
Профиль формата : Simple@L3
Параметр BVOP формата : Нет
Параметр QPel формата : Нет
Параметр GMC формата : Без точки перехода
Параметр матрицы формата : Default (H.263)
Идентификатор кодека : XVID
Идентификатор кодека/Подсказка : XviD
Продолжительность : 29 м.
Битрейт : 382 Кбит/сек
Ширина : 720 пикс.
Высота : 576 пикс.
Соотношение сторон : 5:4
Частота кадров : 25,000 кадр/сек
Стандарт вещания : PAL
Цветовое пространство : YUV
Подвыборка цветности : 4:2:0
Битовая глубина : 8 бит
Тип развёртки : Прогрессивная
Метод сжатия : С потерями
Бит/(Пиксели*Кадры) : 0.037
Размер потока : 82,0 Мбайт (89%)
Библиотека кодирования : XviD 1.1.2 (UTC 2006-11-01)

Аудио
Идентификатор : 1
Формат : MPEG Audio
Версия формата : Version 1
Профиль формата : Layer 3
Режим : Joint stereo
Расширение режима : MS Stereo
Идентификатор кодека : 55
Идентификатор кодека/Подсказка : MP3
Продолжительность : 29 м.
Вид битрейта : Переменный
Битрейт : 35,8 Кбит/сек
Канал(ы) : 2 канала(ов)
Частота : 32,0 КГц
Метод сжатия : С потерями
Размер потока : 7,66 Мбайт (8%)
Выравнивание : Соединение по промежуткам
Продолжительность промежутка : 36 мс. (0,90 видеокадр)
Время предзагрузки промежутка : 451 ms
Библиотека кодирования : LAME3.97






   Похожие торренты   Торрент   Размер 
В этой теме нет новых непрочитанных сообщений. Обман Обамы / Obama Deception (2009) DVDRip

10 | 7

702.03 МБ

В этой теме нет новых непрочитанных сообщений. Обман Обамы / The Obama Deception: The Mask Comes Off (2009) DVDRip

3 | 3

1.57 ГБ

В этой теме нет новых непрочитанных сообщений. Обман Обамы / Obama Deception (2009) DVDRip-AVC от Torrent-Xzona

17 | 2

1.96 ГБ

В этой теме нет новых непрочитанных сообщений. О, Пасха Велия! Светлана Копылова (2009) mp3

52 | 54

226.77 МБ

В этой теме нет новых непрочитанных сообщений. Веселая пасха / Joyeuses Pâques (1984) DVDRip-AVC | P, P2, A

143 | 45

3.26 ГБ

В этой теме нет новых непрочитанных сообщений. Веселая пасха / Joyeuses Pâques (1984) DVDRip от Киномагия

235 | 17

1.37 ГБ

В этой теме нет новых непрочитанных сообщений. Обман / Deception (2001) DVDRip от ExKinoRay

1 | 4

1.72 ГБ




Вы не можете начинать темы
Вы не можете отвечать на сообщения
Вы не можете редактировать свои сообщения
Вы не можете удалять свои сообщения
Вы не можете добавлять вложения

Перейти:  
Для Мосгорсуда, Роскомнадзора и рекламодателей: mosgorsud-torrent[собачка]yandex.ru
 Вход
ppkBB3cker v.2 © 2008-2014 @ PPK
[ Time : 0.029s | 14 Queries | GZIP : Off ]

Торрент трекер RUTOR.IN, Не можете зайти на rutor.org? Какой новый адрес рутор? Какое зеркало рутор? Не работает rutor.org и зеркала? Тогда наш торрент специально для вас. Rutor.in неофициальное зеркало rutor. В случае если у Вас заблокирован rutor или вдруг Вы не можете на него зайти, то Вы без труда сможете скачать бесплатно и без рекламы последние новинки кино, игр, сериалов и прочего у нас, на Rutor.in. Не нужно использовать прокси, чтобы зайти на рутор, достаточно воспользоваться нашим ресурсом. Все новые фильмы, игры, сериалы, книги и музыка за 2013 и 2014 годы через торрент бесплатно. Скачивайте фильмы в хорошем качестве, игры для пк, xbox, playstation без регистрации. У нас вы найдете новые Зарубежные сериалы и Русские сериалы 2013, 2014, 2015 годов. Оставайтесь с нами, качайте любимые фильмы, игры, сериалы, книги и музыку.