img image001 image001 image001 image001 image001 image001 image001 image001 image001 image001 image001 image001 image001 image001 image001

Planets Sun Sun Sun
Статистика раздачи
Автор: Снежана | Размер: 2.24 ГБ | Добавлен: 26 июл 2013
Раздают: 1    Качают: 32
Скачать торрент
Скачать торрент
Описание торрента

СообщениеДобавлено: 26 июл 2013 

#77
Информация о фильме
Название: Истинная Церковь
Год выхода: 2010
Жанр: Документальный, проповеди, лекции, семинары, религия, христианство
Выпущено: Христианский проект "СИЛА ПРАВДЫ" adventusvideo

Описание: Эта трилогия проливает свет на многие вопросы и разоблачает ложь, которой пропитано современное христианство.

Продолжительность: 03:08:27
Перевод: не требуется
Субтитры: нет
Файл
Формат: AVI
Качество DVDRip
Видео: (960x618),1591 Кбит/сек, 1,552,29,970 кадр/сек
Звук: MP3,128 Кбит/сек,2 канала(ов),44,1 КГц

Видео
Идентификатор : 0
Формат : MPEG-4 Visual
Профиль формата : Simple@L1
Параметр BVOP формата : Нет
Параметр QPel формата : Нет
Параметр GMC формата : Без точки перехода
Параметр матрицы формата : Default (H.263)
Идентификатор кодека : DX50
Идентификатор кодека/Подсказка : DivX 5
Продолжительность : 1 ч. 13 м.
Битрейт : 1510 Кбит/сек
Ширина : 960 пикс.
Высота : 618 пикс.
Соотношение сторон : 1,552
Частота кадров : 29,970 кадр/сек
Цветовое пространство : YUV
Подвыборка цветности : 4:2:0
Битовая глубина : 8 бит
Тип развёртки : Прогрессивная
Метод сжатия : С потерями
Бит/(Пиксели*Кадры) : 0.097
Размер потока : 797 Мбайт (91%)
Библиотека кодирования : Lavc52.29.0

Аудио
Идентификатор : 1
Формат : MPEG Audio
Версия формата : Version 1
Профиль формата : Layer 3
Режим : Joint stereo
Расширение режима : MS Stereo
Идентификатор кодека : 55
Идентификатор кодека/Подсказка : MP3
Продолжительность : 1 ч. 13 м.
Вид битрейта : Постоянный
Битрейт : 128 Кбит/сек
Канал(ы) : 2 канала(ов)
Частота : 44,1 КГц
Метод сжатия : С потерями
Размер потока : 67,6 Мбайт (8%)
Выравнивание : Соединение по промежуткам
Продолжительность промежутка : 26 мс. (0,78 видеокадр)
Время предзагрузки промежутка : 522 ms
Библиотека кодирования : LAME3.98







   Похожие торренты   Торрент   Размер 
В этой теме нет новых непрочитанных сообщений. Истинная суть / True Nature (2010) SATRip от RG MixTorrent

0 | 1

1.46 ГБ

В этой теме нет новых непрочитанных сообщений. Истинная суть / True Nature (2010) HDTVRip 720р от RG MixTorrent

1 | 1

1.97 ГБ

В этой теме нет новых непрочитанных сообщений. Церковь в истории [01-10 из 10] (2012) DVDRip

16 | 3

3.42 ГБ

В этой теме нет новых непрочитанных сообщений. BBC: Иисус: истинная история / BBC: Jesus: The Real Story (2001) DVDRip

72 | 14

2.05 ГБ

В этой теме нет новых непрочитанных сообщений. Церковь / Собор / La Chiesa / The Church (1988) DVDRip от Киномагия

1 | 2

745.35 МБ

В этой теме нет новых непрочитанных сообщений. Церковь / Собор / La Chiesa / The Church (1988) DVDRip от Киномагия

0 | 5

1.46 ГБ

В этой теме нет новых непрочитанных сообщений. [Мир фантастики] Трилогия Шрек: киноляпы и интересные факты / Shrek 1-3 (2010) DVDRip

52 | 4

328.19 МБ




Вы не можете начинать темы
Вы не можете отвечать на сообщения
Вы не можете редактировать свои сообщения
Вы не можете удалять свои сообщения
Вы не можете добавлять вложения

Перейти:  
Для Мосгорсуда, Роскомнадзора и рекламодателей: mosgorsud-torrent[собачка]yandex.ru
 Вход
ppkBB3cker v.2 © 2008-2014 @ PPK
[ Time : 0.057s | 15 Queries | GZIP : On ]

Торрент трекер RUTOR.IN, Не можете зайти на rutor.org? Какой новый адрес рутор? Какое зеркало рутор? Не работает rutor.org и зеркала? Тогда наш торрент специально для вас. Rutor.in неофициальное зеркало rutor. В случае если у Вас заблокирован rutor или вдруг Вы не можете на него зайти, то Вы без труда сможете скачать бесплатно и без рекламы последние новинки кино, игр, сериалов и прочего у нас, на Rutor.in. Не нужно использовать прокси, чтобы зайти на рутор, достаточно воспользоваться нашим ресурсом. Все новые фильмы, игры, сериалы, книги и музыка за 2013 и 2014 годы через торрент бесплатно. Скачивайте фильмы в хорошем качестве, игры для пк, xbox, playstation без регистрации. У нас вы найдете новые Зарубежные сериалы и Русские сериалы 2013, 2014, 2015 годов. Оставайтесь с нами, качайте любимые фильмы, игры, сериалы, книги и музыку.