img image001 image001 image001 image001 image001 image001 image001 image001 image001 image001 image001 image001 image001 image001 image001 image001

Planets Sun Sun Sun
Статистика раздачи
Автор: Снежана | Размер: 2.24 ГБ | Добавлен: 26 июл 2013
Раздают: 1    Качают: 32
Скачать торрент
Скачать торрент
Описание торрента

СообщениеДобавлено: 26 июл 2013 

#77
Информация о фильме
Название: Истинная Церковь
Год выхода: 2010
Жанр: Документальный, проповеди, лекции, семинары, религия, христианство
Выпущено: Христианский проект "СИЛА ПРАВДЫ" adventusvideo

Описание: Эта трилогия проливает свет на многие вопросы и разоблачает ложь, которой пропитано современное христианство.

Продолжительность: 03:08:27
Перевод: не требуется
Субтитры: нет
Файл
Формат: AVI
Качество DVDRip
Видео: (960x618),1591 Кбит/сек, 1,552,29,970 кадр/сек
Звук: MP3,128 Кбит/сек,2 канала(ов),44,1 КГц

Видео
Идентификатор : 0
Формат : MPEG-4 Visual
Профиль формата : Simple@L1
Параметр BVOP формата : Нет
Параметр QPel формата : Нет
Параметр GMC формата : Без точки перехода
Параметр матрицы формата : Default (H.263)
Идентификатор кодека : DX50
Идентификатор кодека/Подсказка : DivX 5
Продолжительность : 1 ч. 13 м.
Битрейт : 1510 Кбит/сек
Ширина : 960 пикс.
Высота : 618 пикс.
Соотношение сторон : 1,552
Частота кадров : 29,970 кадр/сек
Цветовое пространство : YUV
Подвыборка цветности : 4:2:0
Битовая глубина : 8 бит
Тип развёртки : Прогрессивная
Метод сжатия : С потерями
Бит/(Пиксели*Кадры) : 0.097
Размер потока : 797 Мбайт (91%)
Библиотека кодирования : Lavc52.29.0

Аудио
Идентификатор : 1
Формат : MPEG Audio
Версия формата : Version 1
Профиль формата : Layer 3
Режим : Joint stereo
Расширение режима : MS Stereo
Идентификатор кодека : 55
Идентификатор кодека/Подсказка : MP3
Продолжительность : 1 ч. 13 м.
Вид битрейта : Постоянный
Битрейт : 128 Кбит/сек
Канал(ы) : 2 канала(ов)
Частота : 44,1 КГц
Метод сжатия : С потерями
Размер потока : 67,6 Мбайт (8%)
Выравнивание : Соединение по промежуткам
Продолжительность промежутка : 26 мс. (0,78 видеокадр)
Время предзагрузки промежутка : 522 ms
Библиотека кодирования : LAME3.98







   Похожие торренты   Торрент   Размер 
В этой теме нет новых непрочитанных сообщений. Легко ли быть молодым? / Vai viegli but jaunam? (Трилогия) (1986, 1997, 2010) DVDRip, SATRip от Generalfilm

60 | 19

2.8 ГБ

В этой теме нет новых непрочитанных сообщений. Истинная грусть / Pafekuto Buru (1998) BDRip-AVC | iPad | P

113 | 23

1.61 ГБ

В этой теме нет новых непрочитанных сообщений. Церковь Рождества Иоанна Предтечи [RTG HD] (2013) HDTVRip от HitWay

30 | 9

259.89 МБ

В этой теме нет новых непрочитанных сообщений. Блэйд: Трилогия / Blade: Trilogy (1998-2004) BDRip 1080p от R.G. HD-Films | 60 fps | Трилогия

66 | 41

37.07 ГБ

В этой теме нет новых непрочитанных сообщений. Собор / Церковь / La Chiesa / The Church (Микеле Соави) [1988, ужасы, HDRip] DVO(rus)+2xAVO(rus) / Мистика

4 | 0

2.07 ГБ

В этой теме нет новых непрочитанных сообщений. Субботняя церковь / Saturday Church (Дэймон Кардасис) [2017, мюзикл, фэнтези, драма, WEBDLRip] MVO / Драмы

2 | 0

1.35 ГБ

В этой теме нет новых непрочитанных сообщений. S.T.A.L.K.E.R. - Трилогия / S.T.A.L.K.E.R. - Trilogy (2007-2010) PC | RePack от R.G. Games

127 | 88

13.47 ГБ




Вы не можете начинать темы
Вы не можете отвечать на сообщения
Вы не можете редактировать свои сообщения
Вы не можете удалять свои сообщения
Вы не можете добавлять вложения

Перейти:  
 Вход
ppkBB3cker v.2 © 2008-2014 @ PPK
[ Time : 0.041s | 17 Queries | GZIP : Off ]

cron