img image001 image001 image001 image001 image001 image001 image001 image001 image001 image001 image001 image001 image001 image001 image001

Planets Sun Sun Sun
Статистика раздачи
Автор: Снежана | Размер: 440.25 МБ | Добавлен: 26 июл 2013
Раздают: 0    Качают: 4
Скачать торрент
Скачать торрент
Описание торрента

СообщениеДобавлено: 26 июл 2013 

Своя игра / Выпуск 33 (14.05) / 2011 г., Интеллектуальная игра, SATRip


Год выпуска: 2011
Жанр: телевизионная игра-викторина
Страна: Россия
Студия:
Продолжительность: около 39 мин
Перевод: не требуется

Описание: В игре принимают участие 3 игрока. Их основная цель — отвечать на вопросы и зарабатывать как можно большее число очков. В начале игры у каждого из игроков на счету 0 очков. Каждое очко в игре равняется 1 рублю.

Суть игры заключается в том, что три участника отвечают на вопросы различной стоимости, пытаясь опередить друг друга. игра состоит из четырёх раундов — трёх основных и финального. Каждый из основных раундов содержит 30 вопросов — 6 тем по 5 вопросов в каждой. Каждый вопрос темы имеет свою стоимость — в первом раунде она варьируется от 100 до 500 рублей, во втором — от 200 до 1000, и в третьем — от 300 до 1500. Чем выше цена вопроса, тем он сложнее.

Начинается игра с того, что игрок за центральным игровым столом выбирает один из 30 вопросов. Вопрос появляется на экране и зачитывается вслух ведущим, и любой из игроков может нажать на кнопку и дать ответ на него. Игроки могут нажимать на кнопку не в любой момент после того, как вопрос был выведен на экран, а только после сигнала (в качестве сигнала выступает лампочка, которая находится за спиной ведущего и не видна телезрителям; сигнал включается одновременно с последним слогом вопроса, но, поскольку делает это человек, лампочка может загореться и раньше); если игрок жмёт до сигнала, то фиксируется фальстарт, и его кнопка блокируется примерно на две секунды. Далее ведущий определяет, прав ли отвечающий. В случае правильного ответа очки начисляются на счёт игрока, а игрок получает право выбрать следующий вопрос. В случае неверного ответа очки снимаются со счёта отвечавшего. В этом случае оставшиеся игроки имеют право нажать кнопку и дать свой ответ на прозвучавший вопрос. Если в течение трёх секунд на вопрос никто не отвечает, то ведущий делает это сам, а следующий вопрос выбирает тот же игрок, что выбирал и предыдущий.

Каждый раунд продолжается до тех пор, пока в нём не будут разыграны все вопросы или пока не истечёт отведённое на него время (10 минут). В последнем случае перед выбором очередного вопроса в игре звучит гонг, обозначающий конец раунда. С января 2005 года некоторые неотвеченные вопросы в игре при монтаже вырезаются.

Выпуск за 14.05.2011

Файл s46v33_svoya.igra_14.05.2011.avi
Качество: SATRip
Видео: 704x528 (1.33:1), 25 fps, XviD MPEG-4 ~1465 kbps avg, 0.16 bit/pixel
Звук: 48 kHz, MPEG Layer 3, 2 ch, ~128.00 kbps avg
Субтитры: нет
Релиз группы:

Complete name : F:Своя играs46v33_svoya.igra_14.05.2011.avi
Format : AVI
Format/Info : Audio Video Interleave
File size : 440 MiB
Duration : 38mn 59s
Overall bit rate : 1 578 Kbps
Writing library : VirtualDub build 33848/release

Video
ID : 0
Format : MPEG-4 Visual
Format profile : Advanced Simple@L5
Format settings, BVOP : 2
Format settings, QPel : No
Format settings, GMC : No warppoints
Format settings, Matrix : Default (H.263)
Muxing mode : Packed bitstream
Codec ID : XVID
Codec ID/Hint : XviD
Duration : 38mn 59s
Bit rate : 1 441 Kbps
Width : 704 pixels
Height : 528 pixels
Display aspect ratio : 4:3
Frame rate : 25.000 fps
Color space : YUV
Chroma subsampling : 4:2:0
Bit depth : 8 bits
Scan type : Progressive
Compression mode : Lossy
Bits/(Pixel*Frame) : 0.155
Stream size : 402 MiB (91%)
Writing library : XviD 1.2.1 (UTC 2008-12-04)

Audio
ID : 1
Format : MPEG Audio
Format version : Version 1
Format profile : Layer 3
Mode : Joint stereo
Mode extension : MS Stereo
Codec ID : 55
Codec ID/Hint : MP3
Duration : 38mn 59s
Bit rate mode : Constant
Bit rate : 128 Kbps
Channel(s) : 2 channels
Sampling rate : 48.0 KHz
Compression mode : Lossy
Stream size : 35.7 MiB (8%)
Alignment : Split accross interleaves
Interleave, duration : 40 ms (1.00 video frame)
Interleave, preload duration : 500 ms



   Похожие торренты   Торрент   Размер 
В этой теме нет новых непрочитанных сообщений. Своя игра (24.12.2011) SATRip

0 | 1

439.57 МБ

В этой теме нет новых непрочитанных сообщений. Своя игра (28.08.2011) SATRip

1 | 3

440.12 МБ

В этой теме нет новых непрочитанных сообщений. Своя игра (03.04.2011) SATRip

0 | 3

439.75 МБ

В этой теме нет новых непрочитанных сообщений. Своя игра (29.10.2011) SATRip

0 | 1

439.46 МБ

В этой теме нет новых непрочитанных сообщений. Своя игра (20.11.2011) SATRip

0 | 1

439.81 МБ

В этой теме нет новых непрочитанных сообщений. Своя игра (17.12.2011) SATRip

0 | 2

440.42 МБ

В этой теме нет новых непрочитанных сообщений. Своя игра (18.06.2011) SATRip

0 | 3

440.35 МБ




Вы не можете начинать темы
Вы не можете отвечать на сообщения
Вы не можете редактировать свои сообщения
Вы не можете удалять свои сообщения
Вы не можете добавлять вложения

Перейти:  
Для Мосгорсуда, Роскомнадзора и рекламодателей: mosgorsud-torrent[собачка]yandex.ru
 Вход
ppkBB3cker v.2 © 2008-2014 @ PPK
[ Time : 0.099s | 14 Queries | GZIP : Off ]

Торрент трекер RUTOR.IN, Не можете зайти на rutor.org? Какой новый адрес рутор? Какое зеркало рутор? Не работает rutor.org и зеркала? Тогда наш торрент специально для вас. Rutor.in неофициальное зеркало rutor. В случае если у Вас заблокирован rutor или вдруг Вы не можете на него зайти, то Вы без труда сможете скачать бесплатно и без рекламы последние новинки кино, игр, сериалов и прочего у нас, на Rutor.in. Не нужно использовать прокси, чтобы зайти на рутор, достаточно воспользоваться нашим ресурсом. Все новые фильмы, игры, сериалы, книги и музыка за 2013 и 2014 годы через торрент бесплатно. Скачивайте фильмы в хорошем качестве, игры для пк, xbox, playstation без регистрации. У нас вы найдете новые Зарубежные сериалы и Русские сериалы 2013, 2014, 2015 годов. Оставайтесь с нами, качайте любимые фильмы, игры, сериалы, книги и музыку.