img image001 image001 image001 image001 image001 image001 image001 image001 image001 image001 image001 image001 image001 image001 image001

Planets Sun Sun Sun
Статистика раздачи
Автор: Снежана | Размер: 578.53 МБ | Добавлен: 26 июл 2013
Раздают: 5    Качают: 3
Скачать торрент
Скачать торрент
Описание торрента

СообщениеДобавлено: 26 июл 2013 

#77

Информация о фильме
Название: Сергей Магнитский: справедливость, закон, судьба
Оригинальное название: Justice For Sergei
Год выхода: 2010
Жанр: Документальный
Режиссер: Ганс Герман, Мартин Маат
Комментатор: Руслан Маликов
Язык: Русский
О фильме:
Созданный спустя год после смерти Сергея фильм «Справедливость, закон, судьба - Сергей Магнитский» - это трагическая история о простом человеке, который в силу обстоятельств стал героем. Это история о том, что порой честь и человеческое достоинство стоят жизни. Это история о том, как один человек сумел сделать то, что большинство из нас не готовы - противостоять произволу и безнаказанности властей до последнего дыхания. Представляя интересы инвестиционного фонда Hermitage, он раскрыл преступление, к которому были причастны сотрудники правоохранительных органов. Вскоре после того как он дал обличающие показания против сотрудников МВД, он был арестован ими же по сфабрикованному уголовному делу. В следственном изоляторе Сергею были созданы невыносимые условия, вследствие которых у него развился панкреатит - тяжелейшее заболевание, вызывающее адские боли. Несмотря на это следователи до последнего дня отказывали Сергею в лечении, игнорируя его многочисленные обращения о предоставлении медицинской помощи. Сергей Магнитский погиб в муках, так и не дождавшись ни помощи, ни справедливости. Он умер 16 ноября 2009 года. В заявлении Московской Хельсинкской группы гибель Сергея Магнитского была названа «убийством, совершенным с особой жестокостью для сокрытия другого преступления, совершенного с участием сотрудников МВД - хищения из бюджета страны 5,4 миллиардов рублей».


Страна: Великобритания
Студия: Frontline
Продолжительность: 00:52:03
Файл
Кодек: Xvid
Качество: DVDRip
Видео: 720x400 пикс, ~1320 Кбит/с, 25,000 кадр/сек
Звук: AC3 (2.0, 224 Кбит/с)


Общее
Полное имя : D:Sergei.Magnitskii.Spravedlivost.zakon.sydba.2010.Xvid.DVDRip.avi
Формат : AVI
Формат/Информация : Audio Video Interleave
Размер файла : 579 Мбайт
Продолжительность : 52 м.
Общий поток : 1554 Кбит/сек
Программа кодирования : VirtualDubMod 1.5.10.2 (build 2540/release)
Библиотека кодирования : VirtualDubMod build 2540/release

Видео
Идентификатор : 0
Формат : MPEG-4 Visual
Профиль формата : Advanced Simple@L5
Параметр BVOP формата : 2
Параметр QPel формата : Нет
Параметр GMC формата : Без точки перехода
Параметр матрицы формата : Default (MPEG)
Идентификатор кодека : XVID
Идентификатор кодека/Подсказка : XviD
Продолжительность : 52 м.
Битрейт : 1320 Кбит/сек
Ширина : 720 пикс.
Высота : 400 пикс.
Соотношение сторон : 16:9
Частота кадров : 25,000 кадр/сек
Цветовое пространство : YUV
Подвыборка цветности : 4:2:0
Битовая глубина : 8 бит
Тип развёртки : Прогрессивная
Метод сжатия : С потерями
Бит/(Пиксели*Кадры) : 0.183
Размер потока : 491 Мбайт (85%)
Библиотека кодирования : XviD 1.2.1 (UTC 2008-12-04)

Аудио
Идентификатор : 1
Формат : AC-3
Формат/Информация : Audio Coding 3
Расширение режима : CM (complete main)
Идентификатор кодека : 2000
Продолжительность : 52 м.
Вид битрейта : Постоянный
Битрейт : 224 Кбит/сек
Канал(ы) : 2 канала(ов)
Расположение каналов : Front: L R
Частота : 48,0 КГц
Битовая глубина : 16 бит
Метод сжатия : С потерями
Размер потока : 83,4 Мбайт (14%)
Выравнивание : Разделение по промежуткам
Продолжительность промежутка : 40 мс. (1,00 видеокадр)
Время предзагрузки промежутка : 500 ms



   Похожие торренты   Торрент   Размер 
В этой теме нет новых непрочитанных сообщений. Жестокая справедливость / Hard Justice (1995) DVDRip | P, A

0 | 3

1.45 ГБ

В этой теме нет новых непрочитанных сообщений. Жестокая справедливость / Hard Justice (1995) DVDRip от NovaLan

0 | 7

1.47 ГБ

В этой теме нет новых непрочитанных сообщений. Некая справедливость / A Certain Justice (2014) HDRip-AVC | P2

543 | 95

1.46 ГБ

В этой теме нет новых непрочитанных сообщений. Некая справедливость / A Certain Justice (2014) HDRip | P2

1509 | 417

1.37 ГБ

В этой теме нет новых непрочитанных сообщений. Некая справедливость / A Certain Justice (2014) BDRip 720p | P2

255 | 149

4.48 ГБ

В этой теме нет новых непрочитанных сообщений. Некая справедливость / A Certain Justice (2014) BDRip 1080p | P2

310 | 84

6.09 ГБ

В этой теме нет новых непрочитанных сообщений. Юная Справедливость: Вторжение / Young Justice: Invasion [02x01-05] (2012) WEB-DLRip | D

19 | 13

1.47 ГБ




Вы не можете начинать темы
Вы не можете отвечать на сообщения
Вы не можете редактировать свои сообщения
Вы не можете удалять свои сообщения
Вы не можете добавлять вложения

Перейти:  
Для Мосгорсуда, Роскомнадзора и рекламодателей: mosgorsud-torrent[собачка]yandex.ru
 Вход
ppkBB3cker v.2 © 2008-2014 @ PPK
[ Time : 0.869s | 14 Queries | GZIP : On ]

Торрент трекер RUTOR.IN, Не можете зайти на rutor.org? Какой новый адрес рутор? Какое зеркало рутор? Не работает rutor.org и зеркала? Тогда наш торрент специально для вас. Rutor.in неофициальное зеркало rutor. В случае если у Вас заблокирован rutor или вдруг Вы не можете на него зайти, то Вы без труда сможете скачать бесплатно и без рекламы последние новинки кино, игр, сериалов и прочего у нас, на Rutor.in. Не нужно использовать прокси, чтобы зайти на рутор, достаточно воспользоваться нашим ресурсом. Все новые фильмы, игры, сериалы, книги и музыка за 2013 и 2014 годы через торрент бесплатно. Скачивайте фильмы в хорошем качестве, игры для пк, xbox, playstation без регистрации. У нас вы найдете новые Зарубежные сериалы и Русские сериалы 2013, 2014, 2015 годов. Оставайтесь с нами, качайте любимые фильмы, игры, сериалы, книги и музыку.