img image001 image001 image001 image001 image001 image001 image001 image001 image001 image001 image001 image001 image001 image001 image001

Planets Sun Sun Sun
Статистика раздачи
Автор: Снежана | Размер: 678.89 МБ | Добавлен: 26 июл 2013
Раздают: 0    Качают: 3
Скачать торрент
Скачать торрент
Описание торрента

СообщениеДобавлено: 26 июл 2013 



Информация о фильме
Название: BBC: Рейс 253: Воздушный терроризм
Оригинальное название: BBC: How Safe Are Our Skies? Detroit Flight 253
Год выхода: 2010
Жанр: Документальный, катастрофа, реконструкция
Режиссер: Натали Вон Хантер, Джереми Холл, Дэн Голд

О фильме:
25 декабря 2009 года, когда самолет авиакомпании Northwest Airlines, выполнявший рейс Амстердам-Детройт, начал снижение, 23-летний молодой человек вышел из туалета, вернулся на свое место и накинул на колени покрывало. Затем он попытался привести в действие взрывное устройство, содержавшее мощное взрывчатое вещество пентаэритриттетранитрат, которое используется в военных целях и способно вызвать крушение самолета. Программа рассказывает о том, как террористу Умару Фаруку Абдул Муталлабу удалось проскользнуть под носом у американских спецслужб и пройти трехступенчатую предпосадочную проверку. В программу вошли свидетельства очевидцев событий и интервью с экспертами. От студенческих лет в Лондоне и подготовки в тренировочном лагере Аль Каиды в Йемене - мы проследим путь Абдулы Муталлабы вплоть до его посадки на самолет. Что было известно о нем службам безопасности? Что произошло бы с 290 пассажирами и экипажем самолета, если бы взрывное устройство детонировало? Какие уроки были извлечены из этого случая? И, наконец, насколько безопасно летать на самолетe?

Страна: Великобритания
Студия: BBC
Продолжительность: 00:58:57
Перевод: Профессиональный (одноголосый)

РЕЛИЗ
ОТ

Файл
Кодек: XVID
Качество: SATRip
Видео: 704 x 400 (1.760) at 25.000 fps/AVI at 1610 Кбит/сек
Звук: MPEG Audio at 128 Кбит/сек/2 канала(ов), 48,0 КГц

MediaInfo
Формат : AVI
Формат/Информация : Audio Video Interleave
Размер файла : 679 Мбайт
Продолжительность : 58 м.
Общий поток : 1610 Кбит/сек
Библиотека кодирования : VirtualDub build 32507/release

Видео
Идентификатор : 0
Формат : MPEG-4 Visual
Профиль формата : Advanced Simple@L5
Параметр BVOP формата : 2
Параметр QPel формата : Нет
Параметр GMC формата : Без точки перехода
Параметр матрицы формата : Default (H.263)
Режим смешивания : Сжатый битовый поток
Идентификатор кодека : XVID
Идентификатор кодека/Подсказка : XviD
Продолжительность : 58 м.
Битрейт : 1472 Кбит/сек
Ширина : 704 пикс.
Высота : 400 пикс.
Соотношение сторон : 16:9
Частота кадров : 25,000 кадр/сек
Цветовое пространство : YUV
Подвыборка цветности : 4:2:0
Битовая глубина : 8 бит
Тип развёртки : Прогрессивная
Метод сжатия : С потерями
Бит/(Пиксели*Кадры) : 0.209
Размер потока : 621 Мбайт (91%)
Библиотека кодирования : XviD 1.2.1 (UTC 2008-12-04)

Аудио
Идентификатор : 1
Формат : MPEG Audio
Версия формата : Version 1
Профиль формата : Layer 3
Режим : Joint stereo
Расширение режима : MS Stereo
Идентификатор кодека : 55
Идентификатор кодека/Подсказка : MP3
Продолжительность : 58 м.
Вид битрейта : Постоянный
Битрейт : 128 Кбит/сек
Канал(ы) : 2 канала(ов)
Частота : 48,0 КГц
Метод сжатия : С потерями
Размер потока : 54,0 Мбайт (8%)
Выравнивание : Разделение по промежуткам
Продолжительность промежутка : 40 мс. (1,00 видеокадр)
Время предзагрузки промежутка : 500 ms












   Похожие торренты   Торрент   Размер 
В этой теме нет новых непрочитанных сообщений. 407: Призрачный рейс / 407: Dark Flight (2012) DVDRip | L2

99 | 22

1.46 ГБ

В этой теме нет новых непрочитанных сообщений. Призрачный рейс / 407 Dark Flight (2012) HDRip | P

291 | 64

2.05 ГБ

В этой теме нет новых непрочитанных сообщений. Рейс 1942 / Flight World War II (2015) BDRip | L1

360 | 5

938.85 МБ

В этой теме нет новых непрочитанных сообщений. Рейс 1942 / Flight World War II (2015) BDRip 1080p | L1

49 | 4

8.21 ГБ

В этой теме нет новых непрочитанных сообщений. 407: Призрачный рейс / 407: Dark Flight (2012) DVDRip | КПК от Generalfilm

8 | 2

349.98 МБ

В этой теме нет новых непрочитанных сообщений. Последний рейс / Last Flight (2014) WEB-DLRip | Чистый звук

513 | 55

1.37 ГБ

В этой теме нет новых непрочитанных сообщений. Последний рейс / Last Flight (2014) WEBRip | Чистый звук

0 | 462

1.46 ГБ




Вы не можете начинать темы
Вы не можете отвечать на сообщения
Вы не можете редактировать свои сообщения
Вы не можете удалять свои сообщения
Вы не можете добавлять вложения

Перейти:  
Для Мосгорсуда, Роскомнадзора и рекламодателей: mosgorsud-torrent[собачка]yandex.ru
 Вход
ppkBB3cker v.2 © 2008-2014 @ PPK
[ Time : 0.100s | 14 Queries | GZIP : Off ]

Торрент трекер RUTOR.IN, Не можете зайти на rutor.org? Какой новый адрес рутор? Какое зеркало рутор? Не работает rutor.org и зеркала? Тогда наш торрент специально для вас. Rutor.in неофициальное зеркало rutor. В случае если у Вас заблокирован rutor или вдруг Вы не можете на него зайти, то Вы без труда сможете скачать бесплатно и без рекламы последние новинки кино, игр, сериалов и прочего у нас, на Rutor.in. Не нужно использовать прокси, чтобы зайти на рутор, достаточно воспользоваться нашим ресурсом. Все новые фильмы, игры, сериалы, книги и музыка за 2013 и 2014 годы через торрент бесплатно. Скачивайте фильмы в хорошем качестве, игры для пк, xbox, playstation без регистрации. У нас вы найдете новые Зарубежные сериалы и Русские сериалы 2013, 2014, 2015 годов. Оставайтесь с нами, качайте любимые фильмы, игры, сериалы, книги и музыку.