img image001 image001 image001 image001 image001 image001 image001 image001 image001 image001 image001 image001 image001 image001 image001

Planets Sun Sun Sun
Статистика раздачи
Автор: Снежана | Размер: 540.97 МБ | Добавлен: 26 июл 2013
Раздают: 0    Качают: 1
Скачать торрент
Скачать торрент
Описание торрента

СообщениеДобавлено: 26 июл 2013 



Информация о фильме
Название: National Geographic: Человек весом в полтонны
Оригинальное название: National Geographic: Half Ton Man
Год выхода: 2005
Жанр: документальный
Режиссер: Катинка Блэкфорд Ньюман

О фильме:
США, Небраска. Специальную службу скорой помощи вызывают для выполнения невероятной задачи. Чтобы добраться до пациента им нужно снести одну из стен дома. Патрик Дьюэл - страдающий ожирением американец, который объедался буквально до смерти. При весе в 482 килограммов, Патрик был самым тяжелым человеком в мире до тех пор, пока ему не пришлось лечь на операцию по уменьшению желудка. Несмотря на все усилия и деньги, вложенные в лечение, Патрик не прекращает объедаться, зная, что от этого он может умереть. Фильм рассказывает историю Патрика и дает научное объяснение ожирению и огромным физическим нагрузкам, которым подвержены люди, страдающие лишним весом.
Страна: Великобритания, США
Студия: National Geographic Channel
Продолжительность: 00:48:56
Перевод:Профессиональный (одноголосый)

РЕЛИЗ
ОТ

Файл
Кодек: XVID
Качество: SATRip
Видео: 704 x 400 (1.760) at 25.000 fps/AVI at 1545 Кбит/сек
Звук: MPEG Audio at 128 Кбит/сек/2 канала(ов), 48,0 КГц

MediaInfo
Формат : AVI
Формат/Информация : Audio Video Interleave
Размер файла : 541 Мбайт
Продолжительность : 48 м.
Общий поток : 1545 Кбит/сек
Библиотека кодирования : VirtualDub build 32507/release

Видео
Идентификатор : 0
Формат : MPEG-4 Visual
Профиль формата : Advanced Simple@L5
Параметр BVOP формата : 2
Параметр QPel формата : Нет
Параметр GMC формата : Без точки перехода
Параметр матрицы формата : Default (H.263)
Режим смешивания : Сжатый битовый поток
Идентификатор кодека : XVID
Идентификатор кодека/Подсказка : XviD
Продолжительность : 48 м.
Битрейт : 1408 Кбит/сек
Ширина : 704 пикс.
Высота : 400 пикс.
Соотношение сторон : 16:9
Частота кадров : 25,000 кадр/сек
Цветовое пространство : YUV
Подвыборка цветности : 4:2:0
Битовая глубина : 8 бит
Тип развёртки : Прогрессивная
Метод сжатия : С потерями
Бит/(Пиксели*Кадры) : 0.200
Размер потока : 493 Мбайт (91%)
Библиотека кодирования : XviD 1.2.1 (UTC 2008-12-04)

Аудио
Идентификатор : 1
Формат : MPEG Audio
Версия формата : Version 1
Профиль формата : Layer 3
Режим : Joint stereo
Расширение режима : MS Stereo
Идентификатор кодека : 55
Идентификатор кодека/Подсказка : MP3
Продолжительность : 48 м.
Вид битрейта : Постоянный
Битрейт : 128 Кбит/сек
Канал(ы) : 2 канала(ов)
Частота : 48,0 КГц
Метод сжатия : С потерями
Размер потока : 44,8 Мбайт (8%)
Выравнивание : Разделение по промежуткам
Продолжительность промежутка : 40 мс. (1,00 видеокадр)
Время предзагрузки промежутка : 500 ms















   Похожие торренты   Торрент   Размер 
В этой теме нет новых непрочитанных сообщений. National Geographic. Суперсооружения: Нефтевышка-гигант / National Geographic. MegaStructures: Ultimate Oil Rigs (2005) SATRip от tenow

2 | 1

488.2 МБ

В этой теме нет новых непрочитанных сообщений. National Geographic. Суперсооружения: Порт Роттердама / National Geographic. MegaStructures: Port of Rotterdam (2005) SATRip от tenow

0 | 2

381.95 МБ

В этой теме нет новых непрочитанных сообщений. National Geographic. Суперсооружения: Добытчики алмазов / National Geographic. MegaStructures: Diamond Diggers (2005) SATRip от tenow

3 | 4

350.86 МБ

В этой теме нет новых непрочитанных сообщений. National Geographic. Суперсооружения: Крупнейший порт мира / National Geographic. MegaStructures: Worlds Busiest Port (2005) SATRip от tenow

2 | 2

483.42 МБ

В этой теме нет новых непрочитанных сообщений. National Geographic. Суперсооружения: Гигантские русские горки (Суператракцион) / National Geographic. MegaStructures: Ultimate Roller Coaster (2005) SATRip от tenow

0 | 2

451.64 МБ

В этой теме нет новых непрочитанных сообщений. National Geographic. Суперсооружения: Подводная лодка ВМС США "Вирджиния" / National Geographic. MegaStructures: USS Virginia (2005) SATRip от tenow

2 | 17

384.93 МБ

В этой теме нет новых непрочитанных сообщений. National Geographic: Человек-волк / National Geographic: The Wolfman (2006) HDTVRip-AVC

2 | 2

1.06 ГБ




Вы не можете начинать темы
Вы не можете отвечать на сообщения
Вы не можете редактировать свои сообщения
Вы не можете удалять свои сообщения
Вы не можете добавлять вложения

Перейти:  
Для Мосгорсуда, Роскомнадзора и рекламодателей: mosgorsud-torrent[собачка]yandex.ru
 Вход
ppkBB3cker v.2 © 2008-2014 @ PPK
[ Time : 0.038s | 14 Queries | GZIP : Off ]

Торрент трекер RUTOR.IN, Не можете зайти на rutor.org? Какой новый адрес рутор? Какое зеркало рутор? Не работает rutor.org и зеркала? Тогда наш торрент специально для вас. Rutor.in неофициальное зеркало rutor. В случае если у Вас заблокирован rutor или вдруг Вы не можете на него зайти, то Вы без труда сможете скачать бесплатно и без рекламы последние новинки кино, игр, сериалов и прочего у нас, на Rutor.in. Не нужно использовать прокси, чтобы зайти на рутор, достаточно воспользоваться нашим ресурсом. Все новые фильмы, игры, сериалы, книги и музыка за 2013 и 2014 годы через торрент бесплатно. Скачивайте фильмы в хорошем качестве, игры для пк, xbox, playstation без регистрации. У нас вы найдете новые Зарубежные сериалы и Русские сериалы 2013, 2014, 2015 годов. Оставайтесь с нами, качайте любимые фильмы, игры, сериалы, книги и музыку.