img image001 image001 image001 image001 image001 image001 image001 image001 image001 image001 image001 image001 image001 image001 image001

Planets Sun Sun Sun
Статистика раздачи
Автор: Снежана | Размер: 559.48 МБ | Добавлен: 26 июл 2013
Раздают: 2    Качают: 2
Скачать торрент
Скачать торрент
Описание торрента

СообщениеДобавлено: 26 июл 2013 



Информация о фильме
Название: Discovery: Джек Потрошитель. Первый серийный убийца
Оригинальное название: название: Discovery: Jack The Ripper. The First Serial Killer
Год выхода: 2006
Жанр: Документальный, криминал, исторический, реконструкция
Режиссер: Дэн Оливер, Энтони Геффен

О фильме:
Джек-Потрошитель был первым в истории серийным убийцей. Вплоть до наших дней, его ужасное господство над улицами Лондона остается одной из величайших тайн в истории: беспочвенная, не имеющая себе равных жестокость, до сих пор неразрешенные преступления... Начальник Управления Скотланд-Ярда по расследованию преступлений с применением насилия, Лора Ричардс, заново открывает расследование по делу Джека-Потрошителя. Пользуясь достижениями современной криминологии и психоанализа, в сотрудничестве с командой экспертов, Лора Ричардс использует методы 21 века, чтобы понять убийцу 19 века, рассеивая в процессе расследования множество мифов, которыми обросла история Джека-Потрошителя. Результаты этой работы полностью меняют общепринятое представление о Джеке-Потрошителе, и позволяют создать не только его психологический портрет, но и предположить, где он жил и даже как выглядел.
Страна: Великобритания
Продолжительность: 00:50:41
Перевод: Дублированный (SDI Media Group)

РЕЛИЗ
ОТ

Файл
Кодек: XVID
Качество: IPTVRip
Видео: 704 x 528 (1.333) at 25.000 fps/AVI at 1543 Кбит/сек
Звук: MPEG Audio at 128 Кбит/сек/2 канала(ов), 48,0 КГц
MediaInfo
Формат : AVI
Формат/Информация : Audio Video Interleave
Размер файла : 559 Мбайт
Продолжительность : 50 м.
Общий поток : 1543 Кбит/сек
Библиотека кодирования : VirtualDub build 32507/release

Видео
Идентификатор : 0
Формат : MPEG-4 Visual
Профиль формата : Advanced Simple@L5
Параметр BVOP формата : 2
Параметр QPel формата : Нет
Параметр GMC формата : Без точки перехода
Параметр матрицы формата : Default (H.263)
Режим смешивания : Сжатый битовый поток
Идентификатор кодека : XVID
Идентификатор кодека/Подсказка : XviD
Продолжительность : 50 м.
Битрейт : 1406 Кбит/сек
Ширина : 704 пикс.
Высота : 528 пикс.
Соотношение сторон : 4:3
Частота кадров : 25,000 кадр/сек
Цветовое пространство : YUV
Подвыборка цветности : 4:2:0
Битовая глубина : 8 бит
Тип развёртки : Прогрессивная
Метод сжатия : С потерями
Бит/(Пиксели*Кадры) : 0.151
Размер потока : 510 Мбайт (91%)
Библиотека кодирования : XviD 1.2.1 (UTC 2008-12-04)

Аудио
Идентификатор : 1
Формат : MPEG Audio
Версия формата : Version 1
Профиль формата : Layer 3
Режим : Joint stereo
Расширение режима : MS Stereo
Идентификатор кодека : 55
Идентификатор кодека/Подсказка : MP3
Продолжительность : 50 м.
Вид битрейта : Постоянный
Битрейт : 128 Кбит/сек
Канал(ы) : 2 канала(ов)
Частота : 48,0 КГц
Метод сжатия : С потерями
Размер потока : 46,4 Мбайт (8%)
Выравнивание : Разделение по промежуткам
Продолжительность промежутка : 40 мс. (1,00 видеокадр)
Время предзагрузки промежутка : 500 ms

















   Похожие торренты   Торрент   Размер 
В этой теме нет новых непрочитанных сообщений. Discovery: Джек Потрошитель в Америке / Discovery: Jack The Ripper In America (2009) SATRip

2 | 2

490.24 МБ

В этой теме нет новых непрочитанных сообщений. Я не серийный убийца / I Am Not a Serial Killer (2016) HDRip | L1

2978 | 480

1.45 ГБ

В этой теме нет новых непрочитанных сообщений. Я не серийный убийца / I Am Not a Serial Killer (2016) WEB-DL 1080p | L

302 | 23

4.4 ГБ

В этой теме нет новых непрочитанных сообщений. Я не серийный убийца / I Am Not a Serial Killer (2016) WEB-DLRip от AleksSin | L

44 | 5

742.66 МБ

В этой теме нет новых непрочитанных сообщений. Я не серийный убийца / I Am Not a Serial Killer (2016) HDRip FreeRutor | L

3 | 0

2.06 ГБ

В этой теме нет новых непрочитанных сообщений. Я не серийный убийца / I Am Not a Serial Killer (2016) WEB-DLRip от AleksSin | L

376 | 26

1.45 ГБ

В этой теме нет новых непрочитанных сообщений. Я не серийный убийца / I Am Not a Serial Killer (2016) BDRemux 1080p | L

0 | 0

22.63 ГБ




Вы не можете начинать темы
Вы не можете отвечать на сообщения
Вы не можете редактировать свои сообщения
Вы не можете удалять свои сообщения
Вы не можете добавлять вложения

Перейти:  
Для Мосгорсуда, Роскомнадзора и рекламодателей: mosgorsud-torrent[собачка]yandex.ru
 Вход
ppkBB3cker v.2 © 2008-2014 @ PPK
[ Time : 0.048s | 16 Queries | GZIP : Off ]

Торрент трекер RUTOR.IN, Не можете зайти на rutor.org? Какой новый адрес рутор? Какое зеркало рутор? Не работает rutor.org и зеркала? Тогда наш торрент специально для вас. Rutor.in неофициальное зеркало rutor. В случае если у Вас заблокирован rutor или вдруг Вы не можете на него зайти, то Вы без труда сможете скачать бесплатно и без рекламы последние новинки кино, игр, сериалов и прочего у нас, на Rutor.in. Не нужно использовать прокси, чтобы зайти на рутор, достаточно воспользоваться нашим ресурсом. Все новые фильмы, игры, сериалы, книги и музыка за 2013 и 2014 годы через торрент бесплатно. Скачивайте фильмы в хорошем качестве, игры для пк, xbox, playstation без регистрации. У нас вы найдете новые Зарубежные сериалы и Русские сериалы 2013, 2014, 2015 годов. Оставайтесь с нами, качайте любимые фильмы, игры, сериалы, книги и музыку.
cron