img image001 image001 image001 image001 image001 image001 image001 image001 image001 image001 image001 image001 image001 image001 image001

Planets Sun Sun Sun
Статистика раздачи
Автор: Снежана | Размер: 1010.85 МБ | Добавлен: 26 июл 2013
Раздают: 8    Качают: 2
Скачать торрент
Скачать торрент
Описание торрента

СообщениеДобавлено: 26 июл 2013 



Информация о фильме
Название: Discovery: Взрывники
Оригинальное название: Discovery: The Blasters
Год выхода: 2005
Жанр: Документальный
Режиссер: Дэвид Хамэн

О фильме:
Те, кто зарабатывает на жизнь сносом зданий, бор.тся за максимальное разрушение минимальными усилиями. Эти люди - прекрасные строители, но нельзя научиться обрушивать 9-ти этажный дом. Это секрет мастерства. Подробные методики и ньюансы того, как это делается, в книгах не описываются. И те немногие, кто знает это - никогда не распространяются об этом. Вместе они составляют самое громогласное тайное общество на Земле - взрывники.
Страна: США
Студия: Discovery Networks Europe, Cineflix Productions
Продолжительность: 2 серии ~ 00:45:45
Перевод: Профессиональный (одноголосый)

Файл
Кодек: XVID
Качество: SATRip
Видео: 704 x 464 (1.517) at 25.000 fps/AVI at 1529 Кбит/сек
Звук: MPEG Audio at 128 Кбит/сек/2 канала(ов), 48,0 КГц

MediaInfo
Видео
Идентификатор : 0
Формат : MPEG-4 Visual
Профиль формата : Advanced Simple@L5
Параметр BVOP формата : 2
Параметр QPel формата : Нет
Параметр GMC формата : Без точки перехода
Параметр матрицы формата : Default (H.263)
Режим смешивания : Сжатый битовый поток
Идентификатор кодека : XVID
Идентификатор кодека/Подсказка : XviD
Продолжительность : 45 м.
Битрейт : 1391 Кбит/сек
Ширина : 704 пикс.
Высота : 464 пикс.
Соотношение сторон : 3:2
Частота кадров : 25,000 кадр/сек
Цветовое пространство : YUV
Подвыборка цветности : 4:2:0
Битовая глубина : 8 бит
Тип развёртки : Прогрессивная
Метод сжатия : С потерями
Бит/(Пиксели*Кадры) : 0.170
Размер потока : 455 Мбайт (91%)
Библиотека кодирования : XviD 1.2.1 (UTC 2008-12-04)

Аудио
Идентификатор : 1
Формат : MPEG Audio
Версия формата : Version 1
Профиль формата : Layer 3
Режим : Joint stereo
Расширение режима : MS Stereo
Идентификатор кодека : 55
Идентификатор кодека/Подсказка : MP3
Продолжительность : 45 м.
Вид битрейта : Постоянный
Битрейт : 128 Кбит/сек
Канал(ы) : 2 канала(ов)
Частота : 48,0 КГц
Метод сжатия : С потерями
Размер потока : 41,9 Мбайт (8%)
Выравнивание : Разделение по промежуткам
Продолжительность промежутка : 40 мс. (1,00 видеокадр)
Время предзагрузки промежутка : 500 ms

















   Похожие торренты   Торрент   Размер 
В этой теме нет новых непрочитанных сообщений. Discovery: Современная война / Discovery: Modern Warfare (2005) DVDRip 720p

84 | 8

2.9 ГБ

В этой теме нет новых непрочитанных сообщений. Discovery: Чужая планета / Discovery: Alien Planet (2005) HDRip

25 | 2

749.37 МБ

В этой теме нет новых непрочитанных сообщений. Discovery: Восходы / Discovery. Hi-Definition Theatre: Sunrise Earth [2 из 64] (2004 -2005) HDTVRip от ExKinoRay

2 | 1

1.36 ГБ

В этой теме нет новых непрочитанных сообщений. Discovery: Молниеносные катастрофы / Discovery: Destroyed in seconds [01-64] (2008-2010) SATRip

10 | 10

17.13 ГБ

В этой теме нет новых непрочитанных сообщений. Discovery: Погружение на дно Океана / Discovery: Dive To The Bottom Of The World (2010) SATRip

7 | 6

433.31 МБ

В этой теме нет новых непрочитанных сообщений. Discovery: Мумии пришельцев / Discovery: Aliens mummies (2012) SATRip от ImperiaFilm

1691 | 65

302.96 МБ

В этой теме нет новых непрочитанных сообщений. Discovery. Суперкорабли (Истории удивительных кораблей) / Discovery. Superships (2003) SATRip

1 | 3

7.44 ГБ




Вы не можете начинать темы
Вы не можете отвечать на сообщения
Вы не можете редактировать свои сообщения
Вы не можете удалять свои сообщения
Вы не можете добавлять вложения

Перейти:  
Для Мосгорсуда, Роскомнадзора и рекламодателей: mosgorsud-torrent[собачка]yandex.ru
 Вход
ppkBB3cker v.2 © 2008-2014 @ PPK
[ Time : 0.092s | 14 Queries | GZIP : On ]

Торрент трекер RUTOR.IN, Не можете зайти на rutor.org? Какой новый адрес рутор? Какое зеркало рутор? Не работает rutor.org и зеркала? Тогда наш торрент специально для вас. Rutor.in неофициальное зеркало rutor. В случае если у Вас заблокирован rutor или вдруг Вы не можете на него зайти, то Вы без труда сможете скачать бесплатно и без рекламы последние новинки кино, игр, сериалов и прочего у нас, на Rutor.in. Не нужно использовать прокси, чтобы зайти на рутор, достаточно воспользоваться нашим ресурсом. Все новые фильмы, игры, сериалы, книги и музыка за 2013 и 2014 годы через торрент бесплатно. Скачивайте фильмы в хорошем качестве, игры для пк, xbox, playstation без регистрации. У нас вы найдете новые Зарубежные сериалы и Русские сериалы 2013, 2014, 2015 годов. Оставайтесь с нами, качайте любимые фильмы, игры, сериалы, книги и музыку.