img image001 image001 image001 image001 image001 image001 image001 image001 image001 image001 image001 image001 image001 image001 image001

Planets Sun Sun Sun
Статистика раздачи
Автор: Снежана | Размер: 1010.85 МБ | Добавлен: 26 июл 2013
Раздают: 8    Качают: 2
Скачать торрент
Скачать торрент
Описание торрента

СообщениеДобавлено: 26 июл 2013 



Информация о фильме
Название: Discovery: Взрывники
Оригинальное название: Discovery: The Blasters
Год выхода: 2005
Жанр: Документальный
Режиссер: Дэвид Хамэн

О фильме:
Те, кто зарабатывает на жизнь сносом зданий, бор.тся за максимальное разрушение минимальными усилиями. Эти люди - прекрасные строители, но нельзя научиться обрушивать 9-ти этажный дом. Это секрет мастерства. Подробные методики и ньюансы того, как это делается, в книгах не описываются. И те немногие, кто знает это - никогда не распространяются об этом. Вместе они составляют самое громогласное тайное общество на Земле - взрывники.
Страна: США
Студия: Discovery Networks Europe, Cineflix Productions
Продолжительность: 2 серии ~ 00:45:45
Перевод: Профессиональный (одноголосый)

Файл
Кодек: XVID
Качество: SATRip
Видео: 704 x 464 (1.517) at 25.000 fps/AVI at 1529 Кбит/сек
Звук: MPEG Audio at 128 Кбит/сек/2 канала(ов), 48,0 КГц

MediaInfo
Видео
Идентификатор : 0
Формат : MPEG-4 Visual
Профиль формата : Advanced Simple@L5
Параметр BVOP формата : 2
Параметр QPel формата : Нет
Параметр GMC формата : Без точки перехода
Параметр матрицы формата : Default (H.263)
Режим смешивания : Сжатый битовый поток
Идентификатор кодека : XVID
Идентификатор кодека/Подсказка : XviD
Продолжительность : 45 м.
Битрейт : 1391 Кбит/сек
Ширина : 704 пикс.
Высота : 464 пикс.
Соотношение сторон : 3:2
Частота кадров : 25,000 кадр/сек
Цветовое пространство : YUV
Подвыборка цветности : 4:2:0
Битовая глубина : 8 бит
Тип развёртки : Прогрессивная
Метод сжатия : С потерями
Бит/(Пиксели*Кадры) : 0.170
Размер потока : 455 Мбайт (91%)
Библиотека кодирования : XviD 1.2.1 (UTC 2008-12-04)

Аудио
Идентификатор : 1
Формат : MPEG Audio
Версия формата : Version 1
Профиль формата : Layer 3
Режим : Joint stereo
Расширение режима : MS Stereo
Идентификатор кодека : 55
Идентификатор кодека/Подсказка : MP3
Продолжительность : 45 м.
Вид битрейта : Постоянный
Битрейт : 128 Кбит/сек
Канал(ы) : 2 канала(ов)
Частота : 48,0 КГц
Метод сжатия : С потерями
Размер потока : 41,9 Мбайт (8%)
Выравнивание : Разделение по промежуткам
Продолжительность промежутка : 40 мс. (1,00 видеокадр)
Время предзагрузки промежутка : 500 ms

















   Похожие торренты   Торрент   Размер 
В этой теме нет новых непрочитанных сообщений. Discovery: Современная война / Discovery: Modern Warfare (2005) DVDRip 720p

48 | 6

2.9 ГБ

В этой теме нет новых непрочитанных сообщений. Discovery: Чужая планета / Discovery: Alien Planet (2005) HDRip

25 | 2

749.37 МБ

В этой теме нет новых непрочитанных сообщений. Discovery: Восходы / Discovery. Hi-Definition Theatre: Sunrise Earth [2 из 64] (2004 -2005) HDTVRip от ExKinoRay

2 | 1

1.36 ГБ

В этой теме нет новых непрочитанных сообщений. Discovery Channel: Первые обитатели Америки / Discovery Channel: America's First Nations (2005) HDTVRip 720p

2 | 4

1.39 ГБ

В этой теме нет новых непрочитанных сообщений. Discovery. Суперкорабли (Истории удивительных кораблей) / Discovery. Superships (2003) SATRip

1 | 3

7.44 ГБ

В этой теме нет новых непрочитанных сообщений. Discovery: Жестокая планета / Discovery: Savage Planet (2010) SATRip от tenow

1 | 3

186.6 МБ

В этой теме нет новых непрочитанных сообщений. Discovery: Почему? Вопросы мироздания / Discovery: Curiosity [01-13 из 16] (2011) SATRip от Дрек

54 | 2

7.57 ГБ




Вы не можете начинать темы
Вы не можете отвечать на сообщения
Вы не можете редактировать свои сообщения
Вы не можете удалять свои сообщения
Вы не можете добавлять вложения

Перейти:  
Для Мосгорсуда, Роскомнадзора и рекламодателей: mosgorsud-torrent[собачка]yandex.ru
 Вход
ppkBB3cker v.2 © 2008-2014 @ PPK
[ Time : 0.052s | 15 Queries | GZIP : Off ]

cron