img image001 image001 image001 image001 image001 image001 image001 image001 image001 image001 image001 image001 image001 image001 image001

Planets Sun Sun Sun
Статистика раздачи
Автор: Снежана | Размер: 1.5 ГБ | Добавлен: 26 июл 2013
Раздают: 2    Качают: 2
Скачать торрент
Скачать торрент
Описание торрента

СообщениеДобавлено: 26 июл 2013 



Информация о фильме
Название: Discovery: Пивовары
Оригинальное название: Discovery: Brew Masters
Год выхода: 2010
Жанр: Документальный

О фильме:
Основатель Dogfish Head Brewery Сэм Каладжионе стремится экспериментировать и создавать новые сорта пива. Каждая серия - процесс производства нового, нестандартного пива. Проследите за его изготовлением - от появления идеи до дегустации.

Список серий
Серия 1. Пиво Bitches Brew
Серия 2. Чича - древний напиток из Перу.
Серия 03. Кедровое пиво, или От зерна до Стакана (Grain to Glass)

Страна: США
Студия: Discovery Channel
Продолжительность: 3 серии ~ 00:45:00
Перевод: Профессиональный (одноголосый)

Файл
Кодек: XVID
Качество: IPTVRip
Видео: 688 x 384 (1.792) at 25.000 fps/AVI at ~1636 Кбит/сек
Звук: MPEG Audio at 128 Кбит/сек/2 канала(ов), 48,0 КГц

MediaInfo
Видео
Идентификатор : 0
Формат : MPEG-4 Visual
Профиль формата : Advanced Simple@L5
Параметр BVOP формата : 1
Параметр QPel формата : Нет
Параметр GMC формата : Без точки перехода
Параметр матрицы формата : Выборочная
Режим смешивания : Сжатый битовый поток
Идентификатор кодека : XVID
Идентификатор кодека/Подсказка : XviD
Продолжительность : 43 м.
Битрейт : 1500 Кбит/сек
Ширина : 688 пикс.
Высота : 384 пикс.
Соотношение сторон : 16:9
Частота кадров : 25,000 кадр/сек
Цветовое пространство : YUV
Подвыборка цветности : 4:2:0
Битовая глубина : 8 бит
Тип развёртки : Прогрессивная
Метод сжатия : С потерями
Бит/(Пиксели*Кадры) : 0.227
Размер потока : 471 Мбайт (92%)
Библиотека кодирования : XviD 58

Аудио
Идентификатор : 1
Формат : MPEG Audio
Версия формата : Version 1
Профиль формата : Layer 3
Режим : Joint stereo
Расширение режима : MS Stereo
Идентификатор кодека : 55
Идентификатор кодека/Подсказка : MP3
Продолжительность : 43 м.
Вид битрейта : Постоянный
Битрейт : 128 Кбит/сек
Канал(ы) : 2 канала(ов)
Частота : 48,0 КГц
Метод сжатия : С потерями
Размер потока : 40,2 Мбайт (8%)
Выравнивание : Разделение по промежуткам
Продолжительность промежутка : 250 мс. (6,25 видеокадров)
Время предзагрузки промежутка : 222 ms














   Похожие торренты   Торрент   Размер 
В этой теме нет новых непрочитанных сообщений. Пивовары / Brew Masters [01-06] (2010-2012) HDTVRip 720р | P1

46 | 14

9.72 ГБ

В этой теме нет новых непрочитанных сообщений. Discovery: Правда о Нострадамусе / Discovery: Nostradamus Decoded (2010) IPTVRip

0 | 1

1.6 ГБ

В этой теме нет новых непрочитанных сообщений. Discovery: Оружейники / Discovery: Weapon Masters [01-10 из 10] (2007) SATRip

7 | 4

3.82 ГБ

В этой теме нет новых непрочитанных сообщений. Discovery: Бушующая планета 2 / Discovery: Raging Planet 2 [e01-08] (2009) IPTVRip от Кинозал.ТV

15 | 2

3.76 ГБ

В этой теме нет новых непрочитанных сообщений. Discovery: Прогулка по озерам. Усач / Discovery: Lake Escapes. Barbel [08 из 10] (2007) IPTVRip от ExKinoRay

0 | 23

260.61 МБ

В этой теме нет новых непрочитанных сообщений. Discovery: Джек Потрошитель. Первый серийный убийца / Discovery: Jack The Ripper. The First Serial Killer (2006) IPTVRip

2 | 2

559.48 МБ

В этой теме нет новых непрочитанных сообщений. Discovery: Погружение на дно Океана / Discovery: Dive To The Bottom Of The World (2010) SATRip

7 | 6

433.31 МБ




Вы не можете начинать темы
Вы не можете отвечать на сообщения
Вы не можете редактировать свои сообщения
Вы не можете удалять свои сообщения
Вы не можете добавлять вложения

Перейти:  
Для Мосгорсуда, Роскомнадзора и рекламодателей: mosgorsud-torrent[собачка]yandex.ru
 Вход
ppkBB3cker v.2 © 2008-2014 @ PPK
[ Time : 1.203s | 14 Queries | GZIP : Off ]

Торрент трекер RUTOR.IN, Не можете зайти на rutor.org? Какой новый адрес рутор? Какое зеркало рутор? Не работает rutor.org и зеркала? Тогда наш торрент специально для вас. Rutor.in неофициальное зеркало rutor. В случае если у Вас заблокирован rutor или вдруг Вы не можете на него зайти, то Вы без труда сможете скачать бесплатно и без рекламы последние новинки кино, игр, сериалов и прочего у нас, на Rutor.in. Не нужно использовать прокси, чтобы зайти на рутор, достаточно воспользоваться нашим ресурсом. Все новые фильмы, игры, сериалы, книги и музыка за 2013 и 2014 годы через торрент бесплатно. Скачивайте фильмы в хорошем качестве, игры для пк, xbox, playstation без регистрации. У нас вы найдете новые Зарубежные сериалы и Русские сериалы 2013, 2014, 2015 годов. Оставайтесь с нами, качайте любимые фильмы, игры, сериалы, книги и музыку.