img image001 image001 image001 image001 image001 image001 image001 image001 image001 image001 image001 image001 image001 image001 image001

Planets Sun Sun Sun
Статистика раздачи
Автор: Снежана | Размер: 1.42 ГБ | Добавлен: 26 июл 2013
Раздают: 0    Качают: 2
Скачать торрент
Скачать торрент
Описание торрента

СообщениеДобавлено: 26 июл 2013 



Информация о фильме
Название: Иностранцы в России
Год выхода: 2008-2009
Жанр: Документальный
Режиссер: Роман Мархолия

О фильме:
Цикл документальных фильмов об иностранцах,прославившихся в России и ставших частью русской истории.

Список серий
1 серия
Франц Лефорт (1656-1699) — государственный и военный деятель, умный, тактичный человек, преданный своему делу и царю Петру I. Родился в Женеве, но вопреки воле семьи решил попытать счастья на военной службе в России. В Лефорте царь Петр I нашел советника и сподвижника, способного содействовать проведению в жизнь задуманных реформ.

2 серия
В 1716 году Франческо Растрелли (1700-1771) приезжает с отцом в Петербург и в скором времени становится архитектором российских императриц Анны и Елизаветы. Он широко пользуется наружными колоннами; они не играют прямой конструктивной роли и приобретают характер тектонического декора. Его архитектурный гений воплотился в неповторимом образе Петербурга. Смог ли Растрелли создать что-то и в Москве?

3 серия
О самом прославленном российском ювелире Карле Фаберже (1846-1920) известно немного. Его личный архив исчез во время революции 1917 года, а в воспоминаниях современников он остался человеком замкнутым, чуть ли не затворником. Зато история ювелирных шедевров с клеймом фирмы Феберже достойна стать сюжетом настоящего авантюрного романа! Имя его сверкает россыпью драгоценных камней и металлов. Оно и по сей день — самый известный ювелирный бренд в мире.

4 серия
Пожалуй, самый популярный мистический герой московского фольклора — сподвижник Петра I, талантливый ученый и военный, граф Яков Брюс (1669-1735). Шотландец на службе русских царей, он предсказывал судьбу по звездам, ставил на ноги безнадежно больных и, говорят, создал эликсир вечной молодости. Заступив на службу к Петру, Яков Брюс начал быстро и стремительно подниматься по государственной лестнице, возглавив русскую артиллерию и участвуя во всех военных походах царя.


Страна: Россия
Студия: ООО 'Прайд'
Продолжительность: 4 серии ~ 00:28:00

Файл
Кодек: h.264
Качество: IPTVRip
Видео: 720 x 480 (1.534) at 25.000 fps/AVI at ~1710 Кбит/сек
Звук: MPEG Audio at 320 Кбит/сек/2 канала(ов), 44,1 КГц

MediaInfo
Видео
Идентификатор : 0
Формат : AVC
Формат/Информация : Advanced Video Codec
Профиль формата : Baseline@L3.0
Параметр CABAC формата : Нет
Параметр ReFrames формата : 1 кадр
Идентификатор кодека : H264
Продолжительность : 12 с.
Вид битрейта : Переменный
Битрейт : 1378 Кбит/сек
Максимальный битрейт : 1974 Кбит/сек
Ширина : 720 пикс.
Высота : 480 пикс.
Соотношение сторон : 3:2
Частота кадров : 25,000 кадр/сек
Частота кадров в оригинале : 24,000 кадр/сек
Стандарт вещания : NTSC
Цветовое пространство : YUV
Подвыборка цветности : 4:2:0
Битовая глубина : 8 бит
Тип развёртки : Прогрессивная
Бит/(Пиксели*Кадры) : 0.159
Размер потока : 261 Мбайт (81%)

Аудио
Идентификатор : 1
Формат : MPEG Audio
Версия формата : Version 1
Профиль формата : Layer 3
Режим : Joint stereo
Идентификатор кодека : 55
Идентификатор кодека/Подсказка : MP3
Продолжительность : 26 м.
Вид битрейта : Постоянный
Битрейт : 320 Кбит/сек
Канал(ы) : 2 канала(ов)
Частота : 44,1 КГц
Метод сжатия : С потерями
Размер потока : 60,7 Мбайт (19%)
Выравнивание : Соединение по промежуткам
Продолжительность промежутка : 26 мс. (0,65 видеокадр)
Библиотека кодирования : LAME3.97











   Похожие торренты   Торрент   Размер 
В этой теме нет новых непрочитанных сообщений. Большая энциклопедия России. Национальная кухня России (2008) PC

20 | 16

85.52 МБ

В этой теме нет новых непрочитанных сообщений. Единоборства. Галерея славы. Подборка № 1 (2008-2009) IPTVRip от Юрчи

0 | 42

4.23 ГБ

В этой теме нет новых непрочитанных сообщений. Голые и смешные [выпуски 1-88] (2008-2009) SATRip, TVRip, IPTVRip

31 | 53

26.78 ГБ

В этой теме нет новых непрочитанных сообщений. Большая Энциклопедия России - Все деньги России (2009) ISO

16 | 6

228.9 МБ

В этой теме нет новых непрочитанных сообщений. Госдеп - 3 с Ксенией Собчак. Зачем иностранцы усыновляют наших детей? Горячева Vs Колесниченко [23.12.2012] (2012) SATRip от РиперАМ

1 | 2

640.45 МБ

В этой теме нет новых непрочитанных сообщений. Как пьют в России? / How They Drink in Russia? (1992) IPTVRip

1 | 2

244.6 МБ

В этой теме нет новых непрочитанных сообщений. Чудеса России. Озеро Баскунчак (2012) IPTVRip от Generalfilm

7 | 6

287.21 МБ




Вы не можете начинать темы
Вы не можете отвечать на сообщения
Вы не можете редактировать свои сообщения
Вы не можете удалять свои сообщения
Вы не можете добавлять вложения

Перейти:  
Для Мосгорсуда, Роскомнадзора и рекламодателей: mosgorsud-torrent[собачка]yandex.ru
 Вход
ppkBB3cker v.2 © 2008-2014 @ PPK
[ Time : 0.041s | 17 Queries | GZIP : Off ]

cron