img image001 image001 image001 image001 image001 image001 image001 image001 image001 image001 image001 image001 image001 image001 image001

Planets Sun Sun Sun
Статистика раздачи
Автор: Снежана | Размер: 500.78 МБ | Добавлен: 26 июл 2013
Раздают: 2    Качают: 1
Скачать торрент
Скачать торрент
Описание торрента

СообщениеДобавлено: 26 июл 2013 



Информация о фильме
Название: Discovery: Страшные взрывы
Оригинальное название: Discovery: Explosions Gone Wrong
Год выхода: 2009
Жанр: Документальный
Режиссер: Геральд Массимеи

О фильме:
Фильм изобилует документальными кадрами мощных настоящих взрывов начиная с девяностых и по 2008 год. Они наносят удар без предупреждения, разрушая собственность и подвергаясь угрозе жизни. Кинофильм изучает эти мощнейшие взрывы с точки зрения науки, выясняя каковы были их предпосылки, каким образом и отчего они происходили, и когда взрывы становятся катастрофами.
Страна: Великобритания
Студия: Discovery Channel
Продолжительность: 00:43:46
Перевод: Профессиональный (одноголосый)

Файл
Кодек: DivX 5
Качество: SATRip
Видео: 640 x 480 (1.333) at 25.000 fps/AVI at 1599 Кбит/сек
Звук: MPEG Audio at 192 Кбит/сек/2 канала(ов), 48,0 КГц

MediaInfo
Видео
Идентификатор : 0
Формат : MPEG-4 Visual
Параметр BVOP формата : Да
Параметр QPel формата : Нет
Параметр GMC формата : Без точки перехода
Параметр матрицы формата : Default (H.263)
Идентификатор кодека : DX50
Идентификатор кодека/Подсказка : DivX 5
Продолжительность : 43 м.
Битрейт : 1397 Кбит/сек
Ширина : 640 пикс.
Высота : 480 пикс.
Соотношение сторон : 4:3
Частота кадров : 25,000 кадр/сек
Цветовое пространство : YUV
Подвыборка цветности : 4:2:0
Битовая глубина : 8 бит
Тип развёртки : Прогрессивная
Метод сжатия : С потерями
Бит/(Пиксели*Кадры) : 0.182
Размер потока : 438 Мбайт (87%)
Библиотека кодирования : DivX 1001

Аудио
Идентификатор : 1
Формат : MPEG Audio
Версия формата : Version 1
Профиль формата : Layer 3
Режим : Joint stereo
Расширение режима : MS Stereo
Идентификатор кодека : 55
Идентификатор кодека/Подсказка : MP3
Продолжительность : 43 м.
Вид битрейта : Постоянный
Битрейт : 192 Кбит/сек
Канал(ы) : 2 канала(ов)
Частота : 48,0 КГц
Метод сжатия : С потерями
Размер потока : 60,1 Мбайт (12%)
Выравнивание : Разделение по промежуткам
Продолжительность промежутка : 40 мс. (1,00 видеокадр)
Время предзагрузки промежутка : 500 ms
Библиотека кодирования : LAME3.96

















   Похожие торренты   Торрент   Размер 
В этой теме нет новых непрочитанных сообщений. Разрушители легенд: Взрывы от А до Я / Mythbusters: Explosions A to Z [Спецвыпуск 20] (2012) IPTVRip-AVC

21 | 2

788.67 МБ

В этой теме нет новых непрочитанных сообщений. Discovery: Орудия смерти / Discovery: Death Machines [01-06 из 06] (2009) SATRip

56 | 10

2.26 ГБ

В этой теме нет новых непрочитанных сообщений. Discovery: Джек Потрошитель в Америке / Discovery: Jack The Ripper In America (2009) SATRip

2 | 2

490.24 МБ

В этой теме нет новых непрочитанных сообщений. Discovery: Научная нефантастика. Физика невозможного / Discovery: Sci-Fi Science: Physics of the Impossible [S01] (2009) SATRip

49 | 7

2.84 ГБ

В этой теме нет новых непрочитанных сообщений. Discovery: Кровь для богов. Предотвращение катастрофы / Discovery: Blood for the Gods (2009) SATRip от Pshichko66

26 | 4

652.18 МБ

В этой теме нет новых непрочитанных сообщений. Discovery: Как это устроено? / Discovery: How Does it Work? [S01-02] (2008-2009) SATRip

184 | 9

5.74 ГБ

В этой теме нет новых непрочитанных сообщений. Discovery: Кровь для богов. Жертвоприношения ради власти / Discovery: Blood for the Gods (2009) SATRip от Pshichko66

41 | 2

652.38 МБ




Вы не можете начинать темы
Вы не можете отвечать на сообщения
Вы не можете редактировать свои сообщения
Вы не можете удалять свои сообщения
Вы не можете добавлять вложения

Перейти:  
Для Мосгорсуда, Роскомнадзора и рекламодателей: mosgorsud-torrent[собачка]yandex.ru
 Вход
ppkBB3cker v.2 © 2008-2014 @ PPK
[ Time : 0.059s | 15 Queries | GZIP : Off ]

cron