img image001 image001 image001 image001 image001 image001 image001 image001 image001 image001 image001 image001 image001 image001 image001

Planets Sun Sun Sun
Статистика раздачи
Автор: Снежана | Размер: 3.43 ГБ | Добавлен: 26 июл 2013
Раздают: 50    Качают: 6
Скачать торрент
Скачать торрент
Описание торрента

СообщениеДобавлено: 26 июл 2013 



Информация о фильме
Название: Полеты вглубь Аляски
Оригинальное название: Flying Wild Alaska
Год выхода: 2011
Жанр: Документальный, Реальное ТВ

О фильме:
На Аляске семейная авиакомпания Твитосов преодолевает арктические погодные условия
и перевозит людей и товары в самые недоступные места.

Список серий
1 серия - Познакомьтесь с Твитосами
2 серия - Жизнь или смерть
3 серия - Взорвать
4 серия - Бабье лето
5 серия - Тундра Такси
6 серия - Greenhorn Бен
7 серия - Глубокая заморозка
8 серия - Буш Brawl
9 серия - Кошелек или Tweto
10 серия - До свидания Солнце


Страна: США
Продолжительность: 10 серий ~ 00:43:32
Перевод: Профессиональный (одноголосый)

Файл
Кодек: XVID
Качество: HDTVRip
Видео: 624 x 352 (1.773) at 23.976 fps/AVI at 1129 Кбит/сек
Звук: MPEG Audio at 128 Кбит/сек/2 канала(ов), 48,0 КГц

MediaInfo
Видео
Идентификатор : 0
Формат : MPEG-4 Visual
Профиль формата : Advanced Simple@L5
Параметр BVOP формата : 2
Параметр QPel формата : Нет
Параметр GMC формата : Без точки перехода
Параметр матрицы формата : Default (H.263)
Идентификатор кодека : XVID
Идентификатор кодека/Подсказка : XviD
Продолжительность : 43 м.
Битрейт : 988 Кбит/сек
Ширина : 624 пикс.
Высота : 352 пикс.
Соотношение сторон : 16:9
Частота кадров : 23,976 кадр/сек
Цветовое пространство : YUV
Подвыборка цветности : 4:2:0
Битовая глубина : 8 бит
Тип развёртки : Прогрессивная
Метод сжатия : С потерями
Бит/(Пиксели*Кадры) : 0.188
Размер потока : 308 Мбайт (88%)
Библиотека кодирования : XviD 1.2.1 (UTC 2008-12-04)

Аудио
Идентификатор : 1
Формат : MPEG Audio
Версия формата : Version 1
Профиль формата : Layer 3
Идентификатор кодека : 55
Идентификатор кодека/Подсказка : MP3
Продолжительность : 43 м.
Вид битрейта : Постоянный
Битрейт : 128 Кбит/сек
Канал(ы) : 2 канала(ов)
Частота : 48,0 КГц
Метод сжатия : С потерями
Размер потока : 39,9 Мбайт (11%)
Выравнивание : Соединение по промежуткам
Продолжительность промежутка : 24 мс. (0,58 видеокадр)
Время предзагрузки промежутка : 504 ms













   Похожие торренты   Торрент   Размер 
В этой теме нет новых непрочитанных сообщений. Дикая природа Аляски / Wild Alaska (2011) HDTVRip от Leo.pard | D

4 | 2

700.66 МБ

В этой теме нет новых непрочитанных сообщений. Дикая природа Аляски / Wild Alaska (2011) HDTVRip-AVC от Leo.pard | D

7 | 2

699.57 МБ

В этой теме нет новых непрочитанных сообщений. Discovery. На краю Аляски / Edge of Alaska [S03] (2016) HDTVRip от HitWay| P

10 | 0

4.26 ГБ

В этой теме нет новых непрочитанных сообщений. Discovery. На краю Аляски / Edge of Alaska [01] (2014) HDTVRip от GeneralFilm | P

12 | 12

2.1 ГБ

В этой теме нет новых непрочитанных сообщений. Discovery. На краю Аляски / Edge of Alaska [01] (2014) HDTVRip от GeneralFilm | P

10 | 2

538.54 МБ

В этой теме нет новых непрочитанных сообщений. Discovery. На краю Аляски / Edge of Alaska [01] (2014) HDTVRip от GeneralFilm | P

17 | 21

3.68 ГБ

В этой теме нет новых непрочитанных сообщений. Discovery. На краю Аляски / Edge of Alaska [01] (2014) HDTVRip от GeneralFilm | P

12 | 3

1.05 ГБ




Вы не можете начинать темы
Вы не можете отвечать на сообщения
Вы не можете редактировать свои сообщения
Вы не можете удалять свои сообщения
Вы не можете добавлять вложения

Перейти:  
Для Мосгорсуда, Роскомнадзора и рекламодателей: mosgorsud-torrent[собачка]yandex.ru
 Вход
ppkBB3cker v.2 © 2008-2014 @ PPK
[ Time : 1.308s | 14 Queries | GZIP : Off ]

Торрент трекер RUTOR.IN, Не можете зайти на rutor.org? Какой новый адрес рутор? Какое зеркало рутор? Не работает rutor.org и зеркала? Тогда наш торрент специально для вас. Rutor.in неофициальное зеркало rutor. В случае если у Вас заблокирован rutor или вдруг Вы не можете на него зайти, то Вы без труда сможете скачать бесплатно и без рекламы последние новинки кино, игр, сериалов и прочего у нас, на Rutor.in. Не нужно использовать прокси, чтобы зайти на рутор, достаточно воспользоваться нашим ресурсом. Все новые фильмы, игры, сериалы, книги и музыка за 2013 и 2014 годы через торрент бесплатно. Скачивайте фильмы в хорошем качестве, игры для пк, xbox, playstation без регистрации. У нас вы найдете новые Зарубежные сериалы и Русские сериалы 2013, 2014, 2015 годов. Оставайтесь с нами, качайте любимые фильмы, игры, сериалы, книги и музыку.