img image001 image001 image001 image001 image001 image001 image001 image001 image001 image001 image001 image001 image001 image001 image001

Planets Sun Sun Sun
Статистика раздачи
Автор: Снежана | Размер: 4.37 ГБ | Добавлен: 26 июл 2013
Раздают: 46    Качают: 5
Скачать торрент
Скачать торрент
Описание торрента

СообщениеДобавлено: 26 июл 2013 

#77


Информация о фильме
Название: Живые пейзажи. Подводный мир Гавайи
Оригинальное название: Living Landscapes. Underwater Paradise Hawaii
Год выхода: 2009
Жанр: Документальный, видовой, релаксация
Режиссер: Майкл Хьюман
О фильме:
Внесите в ваш дом звуки и прекрасные виды подводного мира очередного фильма серии "Живые пейзажи". Подводный мир Гавайских островов - это великолепные сцены самых красочных рифов, черепах, дельфинов и китов вместе с другими экзотическими обитателями океана.

Страна: США
Студия: HDenvironments.com LLC
Продолжительность: 01:02:36
Перевод: не требуется

Файл
Кодек: H.264
Качество: BDRip1080p
Видео: English, 9550 Кбит/сек, 1920*1072 (16:9), в 29,970 кадр/сек, AVC (High@L4.1)
Звук: 448 Кбит/сек, 48,0 КГц, 16 бит, 6 канала(ов), AC-3(Музыкальный)

Общее
Уникальный идентификатор : 193946501358424803286661395555903929026 (0x91E8BCCA0452715D9747A051A744FAC2)
Полное имя : E:торрентPodvodniy.ray.Gavaii.2009.BDRip1080p.mkv
Формат : Matroska
Размер файла : 4,37 Гбайт
Продолжительность : 1 ч. 2 м.
Общий поток : 9995 Кбит/сек
Дата кодирования : UTC 2011-09-29 03:24:03
Программа кодирования : mkvmerge v4.9.1 ('Ich will') built on Jul 11 2011 23:53:15
Библиотека кодирования : libebml v1.2.1 + libmatroska v1.1.1

Видео
Идентификатор : 1
Формат : AVC
Формат/Информация : Advanced Video Codec
Профиль формата : High@L4.1
Параметр CABAC формата : Да
Параметр ReFrames формата : 4 кадры
Идентификатор кодека : V_MPEG4/ISO/AVC
Продолжительность : 1 ч. 2 м.
Битрейт : 9550 Кбит/сек
Ширина : 1920 пикс.
Высота : 1072 пикс.
Соотношение сторон : 16:9
Частота кадров : 29,970 кадр/сек
Цветовое пространство : YUV
Подвыборка цветности : 4:2:0
Битовая глубина : 8 бит
Тип развёртки : Прогрессивная
Бит/(Пиксели*Кадры) : 0.155
Размер потока : 4,09 Гбайт (94%)
Библиотека кодирования : x264 core 118 r2085 8a62835
Настройки программы : cabac=1 / ref=4 / deblock=1:-3:-3 / analyse=0x3:0x133 / me=umh / subme=9 / psy=1 / psy_rd=1.00:0.25 / mixed_ref=1 / me_range=32 / chroma_me=1 / trellis=2 / 8x8dct=1 / cqm=0 / deadzone=21,11 / fast_pskip=0 / chroma_qp_offset=-4 / threads=6 / sliced_threads=0 / nr=4 / decimate=1 / interlaced=0 / bluray_compat=0 / constrained_intra=0 / bframes=5 / b_pyramid=2 / b_adapt=2 / b_bias=0 / direct=3 / weightb=1 / open_gop=0 / weightp=2 / keyint=250 / keyint_min=23 / scenecut=40 / intra_refresh=0 / rc_lookahead=60 / rc=2pass / mbtree=1 / bitrate=9550 / ratetol=1.0 / qcomp=0.80 / qpmin=10 / qpmax=51 / qpstep=4 / cplxblur=20.0 / qblur=0.5 / ip_ratio=1.40 / aq=1:1.00
Язык : English

Аудио
Идентификатор : 2
Формат : AC-3
Формат/Информация : Audio Coding 3
Расширение режима : CM (complete main)
Идентификатор кодека : A_AC3
Продолжительность : 1 ч. 2 м.
Вид битрейта : Постоянный
Битрейт : 448 Кбит/сек
Канал(ы) : 6 канала(ов)
Расположение каналов : Front: L C R, Side: L R, LFE
Частота : 48,0 КГц
Битовая глубина : 16 бит
Метод сжатия : С потерями
Размер потока : 201 Мбайт (4%)



Релиз от:



   Похожие торренты   Торрент   Размер 
В этой теме нет новых непрочитанных сообщений. Живые пейзажи. Подводный мир Гавайи / Living Landscapes. Underwater Paradise Hawaii (2009) BDRip-AVC от ExKinoRay

3 | 3

1.13 ГБ

В этой теме нет новых непрочитанных сообщений. Живые пейзажи. Подводный мир Гавайи / Living Landscapes. Underwater Paradise Hawaii (2009) BDRip от ExKinoRay

11 | 2

1.09 ГБ

В этой теме нет новых непрочитанных сообщений. Живые пейзажи. Подводный мир Гавайи / Living Landscapes. Underwater Paradise Hawaii (2009) BDRip 720p от ExKinoRay

5 | 3

1.97 ГБ

В этой теме нет новых непрочитанных сообщений. Живые пейзажи: Бали / Living Landscapes: Bali (2006) BDRip 1080p

136 | 95

6.42 ГБ

В этой теме нет новых непрочитанных сообщений. Живые Пейзажи: Цветы И Сады / Living Landscapes: Flowers & Gardens (2009) BDRip от HQ-ViDEO

17 | 12

2.02 ГБ

В этой теме нет новых непрочитанных сообщений. Живые Пейзажи: Калифорнийские секвойи / Living Landscapes: California Redwoods (2009) BDRip от HELLYWOOD

0 | 15

1.09 ГБ

В этой теме нет новых непрочитанных сообщений. Живые Пейзажи: Цветы и Сады / Living Landscapes: Flowers & Gardens (2009) BDRip от HELLYWOOD

13 | 9

2.02 ГБ




Вы не можете начинать темы
Вы не можете отвечать на сообщения
Вы не можете редактировать свои сообщения
Вы не можете удалять свои сообщения
Вы не можете добавлять вложения

Перейти:  
Для Мосгорсуда, Роскомнадзора и рекламодателей: mosgorsud-torrent[собачка]yandex.ru
 Вход
ppkBB3cker v.2 © 2008-2014 @ PPK
[ Time : 0.023s | 15 Queries | GZIP : Off ]

Торрент трекер RUTOR.IN, Не можете зайти на rutor.org? Какой новый адрес рутор? Какое зеркало рутор? Не работает rutor.org и зеркала? Тогда наш торрент специально для вас. Rutor.in неофициальное зеркало rutor. В случае если у Вас заблокирован rutor или вдруг Вы не можете на него зайти, то Вы без труда сможете скачать бесплатно и без рекламы последние новинки кино, игр, сериалов и прочего у нас, на Rutor.in. Не нужно использовать прокси, чтобы зайти на рутор, достаточно воспользоваться нашим ресурсом. Все новые фильмы, игры, сериалы, книги и музыка за 2013 и 2014 годы через торрент бесплатно. Скачивайте фильмы в хорошем качестве, игры для пк, xbox, playstation без регистрации. У нас вы найдете новые Зарубежные сериалы и Русские сериалы 2013, 2014, 2015 годов. Оставайтесь с нами, качайте любимые фильмы, игры, сериалы, книги и музыку.
cron