img image001 image001 image001 image001 image001 image001 image001 image001 image001 image001 image001 image001 image001 image001 image001

Planets Sun Sun Sun
Статистика раздачи
Автор: Снежана | Размер: 595.29 МБ | Добавлен: 26 июл 2013
Раздают: 4    Качают: 2
Скачать торрент
Скачать торрент
Описание торрента

СообщениеДобавлено: 26 июл 2013 



Информация о фильме
Название: ВВС: Джеймс Мэй на Луне
Оригинальное название: BBC: James May on the Moon
Год выхода: 2009
Жанр: документальный
Режиссер: Пол Кинг
В ролях: Джеймс Мэй

О фильме:
Луна. Миллионы лет она смотрит на нас сверху и завораживает человечество. Её почитали как божество, фазы Луна связаны с рождением и безумием. В древности люди верили, что построив высокую башню, они смогут дотянуться до неё, забрать её с неба и оставить себе. Рано или поздно человечество должно было взглянуть на Луну поближе. Это один маленький шаг для человека и гигантский скачок для человечества. Фильм посвящен 40-летию высадки Аполлона на Луну. Ведущий передачи Джеймс Мэй встречает трех космонавтов, которые побывали на Луне, испытывает острые ощущения невесомости, и перегрузки. Наконец, он надевает скафандр и летит на самый вверх земной атмосферы в самолете-разведчике U2, где он смотрит вниз на кривизну земли и вверх в черную бесконечность пространства.
Страна: Великобритания
Студия: ВВС
Продолжительность: 00:51:55
Перевод: Профессиональный (одноголосый)

Файл
Кодек: XVID
Качество: SATRip
Видео: 704 x 400 (1.760) at 25.000 fps/AVI at 1603 Кбит/сек
Звук: MPEG Audio at 128 Кбит/сек/2 канала(ов), 48,0 КГц

MediaInfo
Видео
Идентификатор : 0
Формат : MPEG-4 Visual
Профиль формата : Advanced Simple@L5
Параметр BVOP формата : 2
Параметр QPel формата : Нет
Параметр GMC формата : Без точки перехода
Параметр матрицы формата : Default (H.263)
Идентификатор кодека : XVID
Идентификатор кодека/Подсказка : XviD
Продолжительность : 51 м.
Битрейт : 1465 Кбит/сек
Ширина : 704 пикс.
Высота : 400 пикс.
Соотношение сторон : 16:9
Частота кадров : 25,000 кадр/сек
Цветовое пространство : YUV
Подвыборка цветности : 4:2:0
Битовая глубина : 8 бит
Тип развёртки : Прогрессивная
Метод сжатия : С потерями
Бит/(Пиксели*Кадры) : 0.208
Размер потока : 544 Мбайт (91%)
Библиотека кодирования : XviD 64

Аудио
Идентификатор : 1
Формат : MPEG Audio
Версия формата : Version 1
Профиль формата : Layer 3
Идентификатор кодека : 55
Идентификатор кодека/Подсказка : MP3
Продолжительность : 51 м.
Вид битрейта : Постоянный
Битрейт : 128 Кбит/сек
Канал(ы) : 2 канала(ов)
Частота : 48,0 КГц
Метод сжатия : С потерями
Размер потока : 47,5 Мбайт (8%)
Выравнивание : Соединение по промежуткам
Продолжительность промежутка : 40 мс. (1,00 видеокадр)
Время предзагрузки промежутка : 504 ms
Библиотека кодирования : LAME3.98r
Настройки программы : -m s -V 4 -q 0 -lowpass 17 -b 128















   Похожие торренты   Торрент   Размер 
В этой теме нет новых непрочитанных сообщений. Discovery : Наука и техника . Шахты на Луне(Добыча природных богатств на Луне) / Sci-Trek . Mining the Moon. (2009) SATRip by Alex Smit

4 | 1

571.34 МБ

В этой теме нет новых непрочитанных сообщений. Голые на Луне / Голышом на Луне / Nude on the Moon (1961) DVDRip | L1

122 | 42

1.47 ГБ

В этой теме нет новых непрочитанных сообщений. Робинзон на Луне / Остров Кима / Castaway on the Moon / Kimssi pyoryugi / Gim-ssi-pyo-ryoo-gi (2009) DVDRip | Sub

2 | 2

1.37 ГБ

В этой теме нет новых непрочитанных сообщений. Робинзон на Луне / Остров Кима / Castaway on the Moon / Kimssi pyoryugi (2009) DVDRip | КПК от Generalfilm

3 | 2

399.61 МБ

В этой теме нет новых непрочитанных сообщений. Робинзон на Луне / Остров Кима / Castaway on the Moon / Kimssi pyoryugi / Gim-ssi-pyo-ryoo-gi (2009) DVDRip-AVC | L1

13 | 4

1.9 ГБ

В этой теме нет новых непрочитанных сообщений. Аполлон-17. Последние люди на Луне / Apollo 17. The Untold Story of the Last Man on the Moon (2010) SATRip

15 | 5

652.08 МБ

В этой теме нет новых непрочитанных сообщений. Человек на Луне / Man on the Moon (1999) DVDRip

21 | 2

1.99 ГБ




Вы не можете начинать темы
Вы не можете отвечать на сообщения
Вы не можете редактировать свои сообщения
Вы не можете удалять свои сообщения
Вы не можете добавлять вложения

Перейти:  
Для Мосгорсуда, Роскомнадзора и рекламодателей: mosgorsud-torrent[собачка]yandex.ru
 Вход
ppkBB3cker v.2 © 2008-2014 @ PPK
[ Time : 0.040s | 14 Queries | GZIP : Off ]

Торрент трекер RUTOR.IN, Не можете зайти на rutor.org? Какой новый адрес рутор? Какое зеркало рутор? Не работает rutor.org и зеркала? Тогда наш торрент специально для вас. Rutor.in неофициальное зеркало rutor. В случае если у Вас заблокирован rutor или вдруг Вы не можете на него зайти, то Вы без труда сможете скачать бесплатно и без рекламы последние новинки кино, игр, сериалов и прочего у нас, на Rutor.in. Не нужно использовать прокси, чтобы зайти на рутор, достаточно воспользоваться нашим ресурсом. Все новые фильмы, игры, сериалы, книги и музыка за 2013 и 2014 годы через торрент бесплатно. Скачивайте фильмы в хорошем качестве, игры для пк, xbox, playstation без регистрации. У нас вы найдете новые Зарубежные сериалы и Русские сериалы 2013, 2014, 2015 годов. Оставайтесь с нами, качайте любимые фильмы, игры, сериалы, книги и музыку.