img image001 image001 image001 image001 image001 image001 image001 image001 image001 image001 image001 image001 image001 image001 image001

Planets Sun Sun Sun
Статистика раздачи
Автор: Снежана | Размер: 4.11 ГБ | Добавлен: 26 июл 2013
Раздают: 0    Качают: 3
Скачать торрент
Скачать торрент
Описание торрента

СообщениеДобавлено: 26 июл 2013 



Информация о фильме
Название: Открытая Азия
Оригинальное название: Discoveries... Asia
Год выхода: 2008
Жанр: Документальный
Режиссер: Джим Уотт, Келли Уотт

О фильме:
Откройте для себя совсем другую Азию, со своим пёстрым культурно-историческим наследием, цивилизованным обществом, которым движет желание преуспеть, Азию, такую загадочную и далёкую …

Список серий
Южная Корея. Сеул
Япония. Киото и западная часть острова Хонсю
Япония. Токио
Китай


Страна: США
Студия: Bennett-Watt HD Productions, Inc
Продолжительность: 4 фильма ~ 00:59:00
Перевод: Профессиональный двухголосый

Файл
Кодек: H264
Качество: SATRip
Видео: 720 x 400 (1.800) at 25.000 fps/AVI at 2595-3055 Кбит/сек
Звук: MPEG Audio at 320 Кбит/сек/2 канала(ов), 44,1 КГц

MediaInfo
Видео
Идентификатор : 0
Формат : AVC
Формат/Информация : Advanced Video Codec
Профиль формата : Baseline@L3.0
Параметр CABAC формата : Нет
Параметр ReFrames формата : 1 кадр
Идентификатор кодека : H264
Продолжительность : 50 м.
Вид битрейта : Переменный
Битрейт : 2719 Кбит/сек
Максимальный битрейт : 3901 Кбит/сек
Ширина : 720 пикс.
Высота : 400 пикс.
Соотношение сторон : 16:9
Частота кадров : 25,000 кадр/сек
Частота кадров в оригинале : 24,000 кадр/сек
Цветовое пространство : YUV
Подвыборка цветности : 4:2:0
Битовая глубина : 8 бит
Тип развёртки : Прогрессивная
Бит/(Пиксели*Кадры) : 0.378
Размер потока : 974 Мбайт (89%)

Аудио
Идентификатор : 1
Формат : MPEG Audio
Версия формата : Version 1
Профиль формата : Layer 3
Режим : Joint stereo
Расширение режима : MS Stereo
Идентификатор кодека : 55
Идентификатор кодека/Подсказка : MP3
Продолжительность : 50 м.
Вид битрейта : Постоянный
Битрейт : 320 Кбит/сек
Канал(ы) : 2 канала(ов)
Частота : 44,1 КГц
Метод сжатия : С потерями
Размер потока : 115 Мбайт (10%)
Выравнивание : Соединение по промежуткам
Продолжительность промежутка : 26 мс. (0,65 видеокадр)
Время предзагрузки промежутка : 26 ms
Библиотека кодирования : LAME3.97





















   Похожие торренты   Торрент   Размер 
В этой теме нет новых непрочитанных сообщений. National Geographic : Самые опасные животные мира: Юго-Восточная Азия / World's Deadliest Animals: Asia Pacific (2007) SATRip

0 | 2

551.45 МБ

В этой теме нет новых непрочитанных сообщений. National Geographic: Самые опасные животные мира. Континентальная Азия / World's Deadliest Animals: Asia. Land of Extremes (2007) SATRip

0 | 2

550.9 МБ

В этой теме нет новых непрочитанных сообщений. Discovery: Рукотворные чудеса. Азия / Discovery: Man Made Marvels. Asia [01-13] (2003-2007) SATRip, TVRip | P1

89 | 83

6.22 ГБ

В этой теме нет новых непрочитанных сообщений. Обои Азия - Wallpapers Asia HD 2000х1333 (62шт.) JPG

7 | 6

28.62 МБ

В этой теме нет новых непрочитанных сообщений. Шокирующая Азия / Shocking Asia (1976) DVDRip | P1

328 | 42

1.46 ГБ

В этой теме нет новых непрочитанных сообщений. Шокирующая Азия 2 / Shocking Asia II: The Last Taboos (1985) DVDRip | P2

615 | 59

1.45 ГБ

В этой теме нет новых непрочитанных сообщений. Шокирующая Азия / Shocking Asia (1-3ч.) (1974-1995) TS от Postal

90 | 25

5.48 ГБ




Вы не можете начинать темы
Вы не можете отвечать на сообщения
Вы не можете редактировать свои сообщения
Вы не можете удалять свои сообщения
Вы не можете добавлять вложения

Перейти:  
Для Мосгорсуда, Роскомнадзора и рекламодателей: mosgorsud-torrent[собачка]yandex.ru
 Вход
ppkBB3cker v.2 © 2008-2014 @ PPK
[ Time : 0.025s | 16 Queries | GZIP : Off ]

Торрент трекер RUTOR.IN, Не можете зайти на rutor.org? Какой новый адрес рутор? Какое зеркало рутор? Не работает rutor.org и зеркала? Тогда наш торрент специально для вас. Rutor.in неофициальное зеркало rutor. В случае если у Вас заблокирован rutor или вдруг Вы не можете на него зайти, то Вы без труда сможете скачать бесплатно и без рекламы последние новинки кино, игр, сериалов и прочего у нас, на Rutor.in. Не нужно использовать прокси, чтобы зайти на рутор, достаточно воспользоваться нашим ресурсом. Все новые фильмы, игры, сериалы, книги и музыка за 2013 и 2014 годы через торрент бесплатно. Скачивайте фильмы в хорошем качестве, игры для пк, xbox, playstation без регистрации. У нас вы найдете новые Зарубежные сериалы и Русские сериалы 2013, 2014, 2015 годов. Оставайтесь с нами, качайте любимые фильмы, игры, сериалы, книги и музыку.