img image001 image001 image001 image001 image001 image001 image001 image001 image001 image001 image001 image001 image001 image001 image001

Planets Sun Sun Sun
Статистика раздачи
Автор: Снежана | Размер: 645.59 МБ | Добавлен: 26 июл 2013
Раздают: 30    Качают: 3
Скачать торрент
Скачать торрент
Описание торрента

СообщениеДобавлено: 26 июл 2013 



Информация о фильме
Название: BBC: Мир природы. Мамы и детеныши
Оригинальное название: BBC: The Natural World. Wild Mothers and Babies
Год выхода: 2009
Жанр: Документальный
Режиссер: Хью Кордей, Кэролайн Хокинс, Чарли Гамильтон-Джеймс

О фильме:
Вокруг него опасный мир. Для некоторых детство - это гонка вопреки времени. Для других годы нежной заботы и любви. Первые несколько дней решают все, пути назад нет, история уже началась. Детеныш не рождается полностью готовым к этой жизни, он ещё маленький и не сформировался полностью. Магическая связь матери и детеныша прослеживается на протяжении всего эволюционного пути, когда животные впервые познали друг друга. От сюда и начинается эта история...
Страна: Великобритания
Студия: BBC
Продолжительность: 00:51:54
Перевод: Профессиональный (одноголосный)

Файл
Кодек: XVID
Качество: SATRip
Видео: 640 x 480 (1.333) at 25.000 fps/AVI at 1739 Кбит/сек
Звук: MPEG Audio at 128 Кбит/сек/2 канала(ов), 48,0 КГц

MediaInfo
Видео
Идентификатор : 0
Формат : MPEG-4 Visual
Профиль формата : Advanced Simple@L5
Параметр BVOP формата : 2
Параметр QPel формата : Нет
Параметр GMC формата : Без точки перехода
Параметр матрицы формата : Default (H.263)
Идентификатор кодека : XVID
Идентификатор кодека/Подсказка : XviD
Продолжительность : 51 м.
Битрейт : 1601 Кбит/сек
Ширина : 640 пикс.
Высота : 480 пикс.
Соотношение сторон : 4:3
Частота кадров : 25,000 кадр/сек
Цветовое пространство : YUV
Подвыборка цветности : 4:2:0
Битовая глубина : 8 бит
Тип развёртки : Прогрессивная
Метод сжатия : С потерями
Бит/(Пиксели*Кадры) : 0.208
Размер потока : 594 Мбайт (92%)
Библиотека кодирования : XviD 64

Аудио
Идентификатор : 1
Формат : MPEG Audio
Версия формата : Version 1
Профиль формата : Layer 3
Идентификатор кодека : 55
Идентификатор кодека/Подсказка : MP3
Продолжительность : 51 м.
Вид битрейта : Постоянный
Битрейт : 128 Кбит/сек
Канал(ы) : 2 канала(ов)
Частота : 48,0 КГц
Метод сжатия : С потерями
Размер потока : 47,5 Мбайт (7%)
Выравнивание : Соединение по промежуткам
Продолжительность промежутка : 40 мс. (1,00 видеокадр)
Время предзагрузки промежутка : 504 ms
Библиотека кодирования : LAME3.98r
Настройки программы : -m s -V 4 -q 0 -lowpass 17 -b 128

















   Похожие торренты   Торрент   Размер 
В этой теме нет новых непрочитанных сообщений. BBC: Мир природы. Ошибки природы / Natural World. Natures Misfits (2014) HDTVRip-AVC от Kaztorrents | P1

201 | 29

707.41 МБ

В этой теме нет новых непрочитанных сообщений. Симфония мира природы / BBC: Natural World Symphony (2005) SATRip

9 | 2

660.84 МБ

В этой теме нет новых непрочитанных сообщений. ВВС: Симфония мира природы / BBC: Natural World Symphony (2005) SATRip

27 | 23

660.84 МБ

В этой теме нет новых непрочитанных сообщений. BBC: Мир природы - Горы тропических дождей / Natural World - The Mountains of the Monsoon (2009) HDTVRip от Kaztorrents | P1

33 | 0

691.69 МБ

В этой теме нет новых непрочитанных сообщений. BBC: Мир природы. Секреты подземелий майя / BBC: Natural World. Secrets of the Maya Underworld (2005) SATRIp

15 | 10

708.26 МБ

В этой теме нет новых непрочитанных сообщений. Мир Дикой Природы / Wild World [s01] (2010) SATRip от torrentfilm | P1

87 | 13

2.05 ГБ

В этой теме нет новых непрочитанных сообщений. Мир Дикой Природы / Wild World [s02] (2011-2012) SATRip от torrentfilm | P1

101 | 18

2.05 ГБ




Вы не можете начинать темы
Вы не можете отвечать на сообщения
Вы не можете редактировать свои сообщения
Вы не можете удалять свои сообщения
Вы не можете добавлять вложения

Перейти:  
Для Мосгорсуда, Роскомнадзора и рекламодателей: mosgorsud-torrent[собачка]yandex.ru
 Вход
ppkBB3cker v.2 © 2008-2014 @ PPK
[ Time : 5.322s | 14 Queries | GZIP : Off ]

Торрент трекер RUTOR.IN, Не можете зайти на rutor.org? Какой новый адрес рутор? Какое зеркало рутор? Не работает rutor.org и зеркала? Тогда наш торрент специально для вас. Rutor.in неофициальное зеркало rutor. В случае если у Вас заблокирован rutor или вдруг Вы не можете на него зайти, то Вы без труда сможете скачать бесплатно и без рекламы последние новинки кино, игр, сериалов и прочего у нас, на Rutor.in. Не нужно использовать прокси, чтобы зайти на рутор, достаточно воспользоваться нашим ресурсом. Все новые фильмы, игры, сериалы, книги и музыка за 2013 и 2014 годы через торрент бесплатно. Скачивайте фильмы в хорошем качестве, игры для пк, xbox, playstation без регистрации. У нас вы найдете новые Зарубежные сериалы и Русские сериалы 2013, 2014, 2015 годов. Оставайтесь с нами, качайте любимые фильмы, игры, сериалы, книги и музыку.