img image001 image001 image001 image001 image001 image001 image001 image001 image001 image001 image001 image001 image001 image001 image001

Planets Sun Sun Sun
Статистика раздачи
Автор: Снежана | Размер: 4.37 ГБ | Добавлен: 26 июл 2013
Раздают: 0    Качают: 2
Скачать торрент
Скачать торрент
Описание торрента

СообщениеДобавлено: 26 июл 2013 

#77

Информация о фильме
Название: Путешествие на природе
Оригинальное название: Nature's Journey
Год выхода: 2007
Жанр: документальный, фильм-медитация визуальной музыки
Режиссер: Джон Бэнкс

О фильме:
Оторвитесь от суеты жизни и погрузитесь в очаровательный мир полный красоты и гармонии. Этот фильм - смесь реальности и волшебства, расслабляющей музыки и завораживающей природы, ярких звуков и буйных красок. Видеоряд подготовлен мастером своего дела Джоном Бенксом, а музыка написана и обработана несравненным Майклом Стернсом, хорошо известным нам по фильму Барака.



Страна: США
Студия: Artek Images
Продолжительность: 01:06:24
Перевод: не требуется

Файл
Кодек: H.264
Качество: BDRip720p
Видео: English, 8787 Кбит/сек, 1280*720 (16:9), в 29,970 кадр/сек, AVC (High@L4.1)
Звук: 640 Кбит/сек, 48,0 КГц, 16 бит, 5 канала(ов), AC-3



[code]Общее
Уникальный идентификатор : 237452743313057429943527703562984947018 (0xB2A3BC20982BB0E68FC9E9AC26E8FD4A)
Полное имя : E:торрентNature's Journey (2007)BDRip720p.mkv
Формат : Matroska
Размер файла : 4,37 Гбайт
Продолжительность : 1 ч. 6 м.
Общий поток : 9426 Кбит/сек
Дата кодирования : UTC 2011-10-20 19:41:00
Программа кодирования : mkvmerge v5.0.1 ('Es ist Sommer') built on Oct 9 2011 11:55:43
Библиотека кодирования : libebml v1.2.2 + libmatroska v1.3.0

Видео
Идентификатор : 1
Формат : AVC
Формат/Информация : Advanced Video Codec
Профиль формата : High@L4.1
Параметр CABAC формата : Да
Параметр ReFrames формата : 8 кадры
Идентификатор кодека : V_MPEG4/ISO/AVC
Продолжительность : 1 ч. 6 м.
Битрейт : 8787 Кбит/сек
Ширина : 1280 пикс.
Высота : 720 пикс.
Соотношение сторон : 16:9
Частота кадров : 29,970 кадр/сек
Цветовое пространство : YUV
Подвыборка цветности : 4:2:0
Битовая глубина : 8 бит
Тип развёртки : Прогрессивная
Бит/(Пиксели*Кадры) : 0.318
Размер потока : 3,99 Гбайт (91%)
Библиотека кодирования : x264 core 118 r2085 8a62835
Настройки программы : cabac=1 / ref=8 / deblock=1:-2:-2 / analyse=0x3:0x133 / me=umh / subme=9 / psy=1 / psy_rd=1.00:0.15 / mixed_ref=1 / me_range=32 / chroma_me=1 / trellis=2 / 8x8dct=1 / cqm=0 / deadzone=21,11 / fast_pskip=0 / chroma_qp_offset=-3 / threads=6 / sliced_threads=0 / nr=0 / decimate=1 / interlaced=0 / bluray_compat=0 / constrained_intra=0 / bframes=5 / b_pyramid=2 / b_adapt=2 / b_bias=0 / direct=3 / weightb=1 / open_gop=0 / weightp=2 / keyint=250 / keyint_min=23 / scenecut=40 / intra_refresh=0 / rc_lookahead=60 / rc=2pass / mbtree=1 / bitrate=8787 / ratetol=1.0 / qcomp=0.65 / qpmin=10 / qpmax=51 / qpstep=4 / cplxblur=20.0 / qblur=0.5 / ip_ratio=1.40 / aq=1:1.00
Язык : English

Аудио
Идентификатор : 2
Формат : AC-3
Формат/Информация : Audio Coding 3
Расширение режима : CM (complete main)
Идентификатор кодека : A_AC3
Продолжительность : 1 ч. 6 м.
Вид битрейта : Постоянный
Битрейт : 640 Кбит/сек
Канал(ы) : 5 канала(ов)
Расположение каналов : Front: L C R, Side: L R
Частота : 48,0 КГц
Битовая глубина : 16 бит
Метод сжатия : С потерями
Размер потока : 304 Мбайт (7%)

Меню
00:00:00.000 : en:Chapter 01
00:04:00.173 : en:Chapter 03
00:06:32.191 : en:Chapter 04
00:09:44.317 : en:Chapter 05
00:10:24.423 : en:Chapter 06
00:13:24.136 : en:Chapter 07
00:16:43.135 : en:Chapter 08
00:19:41.513 : en:Chapter 09
00:24:32.537 : en:Chapter 10
00:28:38.983 : en:Chapter 11
00:35:41.072 : en:Chapter 12
00:40:53.284 : en:Chapter 13
00:46:04.328 : en:Chapter 14
00:50:22.686 : en:Chapter 15
00:52:43.560 : en:Chapter 16
01:00:27.390 : en:Chapter 17
01:06:24.113 : en:Chapter 18


Релиз от:



   Похожие торренты   Торрент   Размер 
В этой теме нет новых непрочитанных сообщений. Путешествие по природе / Nature's Journey (2007) BDRip 720p

4 | 3

4.36 ГБ

В этой теме нет новых непрочитанных сообщений. Путешествие по природе / Nature's Journey (2007) BDRip

0 | 2

1.46 ГБ

В этой теме нет новых непрочитанных сообщений. Путешествие по природе / Nature's Journey (2007) BDRip от HQ-ViDEO

10 | 1

1.46 ГБ

В этой теме нет новых непрочитанных сообщений. Путешествие к Центру Земли / Journey to the Center of the Earth (2008) BDRip от Freeisland

9 | 3

12.04 ГБ

В этой теме нет новых непрочитанных сообщений. Путешествие к Центру Земли / Journey to the Center of the Earth (2008) BDRip 1080p от Freeisland

555 | 6

4.37 ГБ

В этой теме нет новых непрочитанных сообщений. Путешествие 2: Таинственный остров / Journey 2: The Mysterious Island (2012) BDRip 1080p от FREEISLAND | лицензия

21 | 8

4.37 ГБ

В этой теме нет новых непрочитанных сообщений. Покахонтас 2: Путешествие в Новый Свет / Pocahontas II: Journey to a New World (1998) BDRip 1080р от Freeisland

563 | 13

2.17 ГБ




Вы не можете начинать темы
Вы не можете отвечать на сообщения
Вы не можете редактировать свои сообщения
Вы не можете удалять свои сообщения
Вы не можете добавлять вложения

Перейти:  
Для Мосгорсуда, Роскомнадзора и рекламодателей: mosgorsud-torrent[собачка]yandex.ru
 Вход
ppkBB3cker v.2 © 2008-2014 @ PPK
[ Time : 0.029s | 14 Queries | GZIP : Off ]

Торрент трекер RUTOR.IN, Не можете зайти на rutor.org? Какой новый адрес рутор? Какое зеркало рутор? Не работает rutor.org и зеркала? Тогда наш торрент специально для вас. Rutor.in неофициальное зеркало rutor. В случае если у Вас заблокирован rutor или вдруг Вы не можете на него зайти, то Вы без труда сможете скачать бесплатно и без рекламы последние новинки кино, игр, сериалов и прочего у нас, на Rutor.in. Не нужно использовать прокси, чтобы зайти на рутор, достаточно воспользоваться нашим ресурсом. Все новые фильмы, игры, сериалы, книги и музыка за 2013 и 2014 годы через торрент бесплатно. Скачивайте фильмы в хорошем качестве, игры для пк, xbox, playstation без регистрации. У нас вы найдете новые Зарубежные сериалы и Русские сериалы 2013, 2014, 2015 годов. Оставайтесь с нами, качайте любимые фильмы, игры, сериалы, книги и музыку.