img image001 image001 image001 image001 image001 image001 image001 image001 image001 image001 image001 image001 image001 image001 image001

Planets Sun Sun Sun
Статистика раздачи
Автор: Снежана | Размер: 951.65 МБ | Добавлен: 26 июл 2013
Раздают: 20    Качают: 5
Скачать торрент
Скачать торрент
Описание торрента

СообщениеДобавлено: 26 июл 2013 



Информация о фильме
Название: National Geographic: Взгляд изнутри: Токийская мафия
Оригинальное название: National Geographic: Inside: Tokyo Mafia
Год выхода: 2011
Жанр: Документальный
Режиссер: Филип Дж. Дэй
В ролях: Якудза, иследователи

О фильме:
Откройте жестокую реальность за внешней благопристойностью мафии Якудза. Её винят в совершении одних из самых кровавых преступлений в Японии...

Страна: США
Студия: National Geographic
Продолжительность: 00:44:58
Перевод: Профессиональный (одноголосый)

Файл
Кодек: H264
Качество: SATRip
Видео: 720 x 400 (1.800) at 25.000 fps/AVI at 2959 Кбит/сек
Звук: MPEG Audio at 320 Кбит/сек/2 канала(ов), 44,1 КГц

MediaInfo
Видео
Идентификатор : 0
Формат : AVC
Формат/Информация : Advanced Video Codec
Профиль формата : Baseline@L3.0
Параметр CABAC формата : Нет
Параметр ReFrames формата : 1 кадр
Идентификатор кодека : H264
Продолжительность : 12 с.
Вид битрейта : Переменный
Битрейт : 2626 Кбит/сек
Максимальный битрейт : 3769 Кбит/сек
Ширина : 720 пикс.
Высота : 400 пикс.
Соотношение сторон : 16:9
Частота кадров : 25,000 кадр/сек
Частота кадров в оригинале : 24,000 кадр/сек
Цветовое пространство : YUV
Подвыборка цветности : 4:2:0
Битовая глубина : 8 бит
Тип развёртки : Прогрессивная
Бит/(Пиксели*Кадры) : 0.365
Размер потока : 845 Мбайт (89%)

Аудио
Идентификатор : 1
Формат : MPEG Audio
Версия формата : Version 1
Профиль формата : Layer 3
Режим : Joint stereo
Идентификатор кодека : 55
Идентификатор кодека/Подсказка : MP3
Продолжительность : 44 м.
Вид битрейта : Постоянный
Битрейт : 320 Кбит/сек
Канал(ы) : 2 канала(ов)
Частота : 44,1 КГц
Метод сжатия : С потерями
Размер потока : 103 Мбайт (11%)
Выравнивание : Соединение по промежуткам
Продолжительность промежутка : 26 мс. (0,65 видеокадр)
Время предзагрузки промежутка : 26 ms
Библиотека кодирования : LAME3.97






   Похожие торренты   Торрент   Размер 
В этой теме нет новых непрочитанных сообщений. Взгляд изнутри: ЛСД / National Geographic. Inside: LSD (2009) SATRip

5 | 7

551.49 МБ

В этой теме нет новых непрочитанных сообщений. National Geographic: Изнутри: База морской пехоты / National Geographic: Inside: Afghan marine base (2010) SATRip

3 | 3

551.17 МБ

В этой теме нет новых непрочитанных сообщений. National Geographic : Взгляд изнутри: Талибанистан / Inside : Talibanistan (2010) SATRip

0 | 5

551.36 МБ

В этой теме нет новых непрочитанных сообщений. National Geographic : Взгляд изнутри : Гугл / Inside : Google (2010) SATRip

8 | 6

571.47 МБ

В этой теме нет новых непрочитанных сообщений. National Geographic. Взгляд изнутри: Самая страшная тюрьма России / Inside: Russia's Toughest Prisons (2011) SATRip

15 | 3

546.75 МБ

В этой теме нет новых непрочитанных сообщений. National Geographic : Взгляд изнутри . Секреты зоны 51 / Inside . Area 51’s Secrets (2010) SATRip by Alex Smit

9 | 5

661.43 МБ

В этой теме нет новых непрочитанных сообщений. Взгляд изнутри: Клубный чемпионат мира ФИФА / National Geographic. Inside: FIFA Club Championship (2006) SATRip

1 | 5

702.24 МБ




Вы не можете начинать темы
Вы не можете отвечать на сообщения
Вы не можете редактировать свои сообщения
Вы не можете удалять свои сообщения
Вы не можете добавлять вложения

Перейти:  
Для Мосгорсуда, Роскомнадзора и рекламодателей: mosgorsud-torrent[собачка]yandex.ru
 Вход
ppkBB3cker v.2 © 2008-2014 @ PPK
[ Time : 0.032s | 18 Queries | GZIP : Off ]

Торрент трекер RUTOR.IN, Не можете зайти на rutor.org? Какой новый адрес рутор? Какое зеркало рутор? Не работает rutor.org и зеркала? Тогда наш торрент специально для вас. Rutor.in неофициальное зеркало rutor. В случае если у Вас заблокирован rutor или вдруг Вы не можете на него зайти, то Вы без труда сможете скачать бесплатно и без рекламы последние новинки кино, игр, сериалов и прочего у нас, на Rutor.in. Не нужно использовать прокси, чтобы зайти на рутор, достаточно воспользоваться нашим ресурсом. Все новые фильмы, игры, сериалы, книги и музыка за 2013 и 2014 годы через торрент бесплатно. Скачивайте фильмы в хорошем качестве, игры для пк, xbox, playstation без регистрации. У нас вы найдете новые Зарубежные сериалы и Русские сериалы 2013, 2014, 2015 годов. Оставайтесь с нами, качайте любимые фильмы, игры, сериалы, книги и музыку.
cron