img image001 image001 image001 image001 image001 image001 image001 image001 image001 image001 image001 image001 image001 image001 image001 image001

Planets Sun Sun Sun
Статистика раздачи
Автор: Снежана | Размер: 951.65 МБ | Добавлен: 26 июл 2013
Раздают: 20    Качают: 5
Скачать торрент
Скачать торрент
Описание торрента

СообщениеДобавлено: 26 июл 2013 



Информация о фильме
Название: National Geographic: Взгляд изнутри: Токийская мафия
Оригинальное название: National Geographic: Inside: Tokyo Mafia
Год выхода: 2011
Жанр: Документальный
Режиссер: Филип Дж. Дэй
В ролях: Якудза, иследователи

О фильме:
Откройте жестокую реальность за внешней благопристойностью мафии Якудза. Её винят в совершении одних из самых кровавых преступлений в Японии...

Страна: США
Студия: National Geographic
Продолжительность: 00:44:58
Перевод: Профессиональный (одноголосый)

Файл
Кодек: H264
Качество: SATRip
Видео: 720 x 400 (1.800) at 25.000 fps/AVI at 2959 Кбит/сек
Звук: MPEG Audio at 320 Кбит/сек/2 канала(ов), 44,1 КГц

MediaInfo
Видео
Идентификатор : 0
Формат : AVC
Формат/Информация : Advanced Video Codec
Профиль формата : Baseline@L3.0
Параметр CABAC формата : Нет
Параметр ReFrames формата : 1 кадр
Идентификатор кодека : H264
Продолжительность : 12 с.
Вид битрейта : Переменный
Битрейт : 2626 Кбит/сек
Максимальный битрейт : 3769 Кбит/сек
Ширина : 720 пикс.
Высота : 400 пикс.
Соотношение сторон : 16:9
Частота кадров : 25,000 кадр/сек
Частота кадров в оригинале : 24,000 кадр/сек
Цветовое пространство : YUV
Подвыборка цветности : 4:2:0
Битовая глубина : 8 бит
Тип развёртки : Прогрессивная
Бит/(Пиксели*Кадры) : 0.365
Размер потока : 845 Мбайт (89%)

Аудио
Идентификатор : 1
Формат : MPEG Audio
Версия формата : Version 1
Профиль формата : Layer 3
Режим : Joint stereo
Идентификатор кодека : 55
Идентификатор кодека/Подсказка : MP3
Продолжительность : 44 м.
Вид битрейта : Постоянный
Битрейт : 320 Кбит/сек
Канал(ы) : 2 канала(ов)
Частота : 44,1 КГц
Метод сжатия : С потерями
Размер потока : 103 Мбайт (11%)
Выравнивание : Соединение по промежуткам
Продолжительность промежутка : 26 мс. (0,65 видеокадр)
Время предзагрузки промежутка : 26 ms
Библиотека кодирования : LAME3.97






   Похожие торренты   Торрент   Размер 
В этой теме нет новых непрочитанных сообщений. National Geographic: Золото города-призрака / National Geographic: Ghost Town Gold [S01] (2012) SATRip от HitWay | P1

12 | 17

3.11 ГБ

В этой теме нет новых непрочитанных сообщений. National Geographic: Золото Юкона / National Geographic: Yokon Gold [01x01-08 из 10] (2013) SATRip от HitWay | P1

36 | 33

3.98 ГБ

В этой теме нет новых непрочитанных сообщений. National Geographic. Библия Дьявола / National Geographic. Devil's Bible (2008) SATRip от Pshichko66

66 | 16

651.49 МБ

В этой теме нет новых непрочитанных сообщений. National Geographic. Комета века / National Geographic. Comet of the century (2013) SATRip от GeneralFilm

186 | 8

630.65 МБ

В этой теме нет новых непрочитанных сообщений. National Geographic: Золото Юкона / National Geographic: Yokon Gold [S01] (2013) SATRip от HitWay | P1

44 | 26

4.96 ГБ

В этой теме нет новых непрочитанных сообщений. Запреты. National Geographic / Taboo. National Geographic [s01-09 55 фильмов] (2002-2012) SATRip от MediaClub | КПК

5 | 201

11.09 ГБ

В этой теме нет новых непрочитанных сообщений. Сокровища Тутанхамона (1-3 серии из 3) / National Geographic. Tut's Treasures: Hidden Secrets (National Geographic) [2017, документальный, познавательный, история, исследование, SATRip] DUB

5 | 0

2.13 ГБ




Вы не можете начинать темы
Вы не можете отвечать на сообщения
Вы не можете редактировать свои сообщения
Вы не можете удалять свои сообщения
Вы не можете добавлять вложения

Перейти:  
 Вход
ppkBB3cker v.2 © 2008-2014 @ PPK
[ Time : 0.159s | 15 Queries | GZIP : Off ]

cron