img image001 image001 image001 image001 image001 image001 image001 image001 image001 image001 image001 image001 image001 image001 image001

Planets Sun Sun Sun
Статистика раздачи
Автор: Снежана | Размер: 1.18 ГБ | Добавлен: 26 июл 2013
Раздают: 0    Качают: 1
Скачать торрент
Скачать торрент
Описание торрента

СообщениеДобавлено: 26 июл 2013 

#77

Информация о фильме
Название: Вечер встреч с автором проекта Сквозь апокалипсис Светланой Пеуновой 22.10.2011
Год выхода: 2011
Режиссер: АРСП
В ролях: Светлана Пеунова

О фильме:
22.10.2011 в Самаре прошёл вечер встреч с автором проекта Сквозь апокалипсис Светланой Пеуновой

Светлана Пеунова личность известная. Она автор метода профилактики социально-стрессовых расстройств. Она автор книг по практической психологии, автор песен и стихов. Она — лидер Общероссийской политической партии «ВОЛЯ». Автором и режиссером документальных фильмов она предстает перед нами впервые.
«Сквозь апокалипсис» - монументальный кинопроект о самых насущных проблемах России и мира, о кризисе цивилизации и о будущем человечества, о том, как один человек может изменить ход истории.
Это цикл документальных фильмов о счастье человека, о любви, вере и предательстве. Авторский кинопроект Светланы Пеуновой никого не оставил равнодушным.

О глобальных климатических изменениях уже говорят ученые. Смещение полюсов, природные катаклизмы, извержения вулканов - все это мы наблюдаем уже сейчас по всей планете. Не прекращаются военные конфликты, эпидемии новых болезней, экономический кризис вот-вот накроет мир второй волной. Пророчества предрекают глобальные катастрофы и апокалипсис уже в 2012 году. Что нас ждет - конец света или конец тьмы? Светлана Пеунова уверена, что будущее зависит от каждого из нас.

Содерждание раздачи
Фильм к авторскому вечеру Светланы Пеунвой 22.10.2011
Вечер встреч с автором проекта Сквозь апокалипсис Светланой Пеуновой 22.10.2011

MediaInfo по каждому из 2 файлов
General
Complete name : Фильм к авторскому вечеру Светланы Пеунвой 22.10.2011.avi
Format : AVI
Format/Info : Audio Video Interleave
File size : 153 MiB
Duration : 9mn 30s
Overall bit rate : 2 246 Kbps
Writing application : FairUse Wizard - http://fairusewizard.com
Writing library : The best and REALLY easy backup tool

Video
ID : 0
Format : MPEG-4 Visual
Format profile : Advanced Simple@L5
Format settings, BVOP : 2
Format settings, QPel : No
Format settings, GMC : No warppoints
Format settings, Matrix : Default (MPEG)
Codec ID : XVID
Codec ID/Hint : XviD
Duration : 9mn 30s
Bit rate : 2 044 Kbps
Width : 720 pixels
Height : 528 pixels
Display aspect ratio : 4:3
Frame rate : 25.000 fps
Color space : YUV
Chroma subsampling : 4:2:0
Bit depth : 8 bits
Scan type : Progressive
Compression mode : Lossy
Bits/(Pixel*Frame) : 0.215
Stream size : 139 MiB (91%)
Writing library : XviD 1.2.0.dev47 (UTC 2006-11-01)

Audio
ID : 1
Format : MPEG Audio
Format version : Version 1
Format profile : Layer 3
Mode : Joint stereo
Codec ID : 55
Codec ID/Hint : MP3
Duration : 9mn 30s
Bit rate mode : Constant
Bit rate : 192 Kbps
Channel(s) : 2 channels
Sampling rate : 48.0 KHz
Compression mode : Lossy
Stream size : 13.1 MiB (9%)
Alignment : Aligned on interleaves
Interleave, duration : 40 ms (1.00 video frame)
Interleave, preload duration : 504 ms
Writing library : LAME3.97
Encoding settings : -m j -V 4 -q 2 -lowpass 18.6 -b 192

General
Complete name : Вечер встреч с автором проекта Сквозь апокалипсис Светланой Пеуновой 22.10.2011.avi
Format : AVI
Format/Info : Audio Video Interleave
File size : 1.04 GiB
Duration : 59mn 34s
Overall bit rate : 2 487 Kbps
Writing application : FairUse Wizard - http://fairusewizard.com
Writing library : The best and REALLY easy backup tool

Video
ID : 0
Format : MPEG-4 Visual
Format profile : Advanced Simple@L5
Format settings, BVOP : 2
Format settings, QPel : No
Format settings, GMC : No warppoints
Format settings, Matrix : Default (MPEG)
Codec ID : XVID
Codec ID/Hint : XviD
Duration : 59mn 34s
Bit rate : 2 285 Kbps
Width : 720 pixels
Height : 528 pixels
Display aspect ratio : 4:3
Frame rate : 25.000 fps
Color space : YUV
Chroma subsampling : 4:2:0
Bit depth : 8 bits
Scan type : Progressive
Compression mode : Lossy
Bits/(Pixel*Frame) : 0.240
Stream size : 974 MiB (92%)
Writing library : XviD 1.2.0.dev47 (UTC 2006-11-01)

Audio
ID : 1
Format : MPEG Audio
Format version : Version 1
Format profile : Layer 3
Mode : Joint stereo
Mode extension : MS Stereo
Codec ID : 55
Codec ID/Hint : MP3
Duration : 59mn 34s
Bit rate mode : Constant
Bit rate : 192 Kbps
Channel(s) : 2 channels
Sampling rate : 48.0 KHz
Compression mode : Lossy
Stream size : 81.8 MiB (8%)
Alignment : Aligned on interleaves
Interleave, duration : 40 ms (1.00 video frame)
Interleave, preload duration : 504 ms
Writing library : LAME3.97
Encoding settings : -m j -V 4 -q 2 -lowpass 18.6 -b 192


Официальный сайт

Страна: Россия
Студия: Академия развития Светланы Пеуновой
Продолжительность: 01:09:04
Перевод: перевод не требуется

Файл
Кодек: Xvid
Качество: DVDRip
Видео: Xvid 720x528 25.00fps 2044-2285 Kbps
Звук: MPEG Audio Layer 3 48000Hz Stereo 192kbps




   Похожие торренты   Торрент   Размер 
В этой теме нет новых непрочитанных сообщений. Апокалипсис 2011: Япония / Apocalipsis 2011 Japan (2011) TVRip

9 | 3

858.7 МБ

В этой теме нет новых непрочитанных сообщений. Сквозь апокалипсис [01-11] (2011-2012) DVDRip

76 | 2

15.13 ГБ

В этой теме нет новых непрочитанных сообщений. Апокалипсис Зомби / Zombie Apocalypse (2011) DVDRip от F-Torrent

70 | 3

1.36 ГБ

В этой теме нет новых непрочитанных сообщений. Апокалипсис Зомби / Zombie Apocalypse (2011) DVDRip от F-Torrent

8 | 6

700.38 МБ

В этой теме нет новых непрочитанных сообщений. Вечер встречи выпускников / Klassefesten (2011) DVDRip

11 | 1

1.46 ГБ

В этой теме нет новых непрочитанных сообщений. Новая волна 2011. День шлягера своей страны. Творческий вечер Александра Зацепина (2011) IPTVRip - KinoZalSat

0 | 151

3.92 ГБ

В этой теме нет новых непрочитанных сообщений. Апокалипсис 2011 [эфир от 18.03] (2011) SATRip

2 | 1

335.37 МБ




Вы не можете начинать темы
Вы не можете отвечать на сообщения
Вы не можете редактировать свои сообщения
Вы не можете удалять свои сообщения
Вы не можете добавлять вложения

Перейти:  
Для Мосгорсуда, Роскомнадзора и рекламодателей: mosgorsud-torrent[собачка]yandex.ru
 Вход
ppkBB3cker v.2 © 2008-2014 @ PPK
[ Time : 0.036s | 14 Queries | GZIP : On ]

Торрент трекер RUTOR.IN, Не можете зайти на rutor.org? Какой новый адрес рутор? Какое зеркало рутор? Не работает rutor.org и зеркала? Тогда наш торрент специально для вас. Rutor.in неофициальное зеркало rutor. В случае если у Вас заблокирован rutor или вдруг Вы не можете на него зайти, то Вы без труда сможете скачать бесплатно и без рекламы последние новинки кино, игр, сериалов и прочего у нас, на Rutor.in. Не нужно использовать прокси, чтобы зайти на рутор, достаточно воспользоваться нашим ресурсом. Все новые фильмы, игры, сериалы, книги и музыка за 2013 и 2014 годы через торрент бесплатно. Скачивайте фильмы в хорошем качестве, игры для пк, xbox, playstation без регистрации. У нас вы найдете новые Зарубежные сериалы и Русские сериалы 2013, 2014, 2015 годов. Оставайтесь с нами, качайте любимые фильмы, игры, сериалы, книги и музыку.