img image001 image001 image001 image001 image001 image001 image001 image001 image001 image001 image001 image001 image001 image001 image001

Planets Sun Sun Sun
Статистика раздачи
Автор: Снежана | Размер: 1.63 ГБ | Добавлен: 26 июл 2013
Раздают: 28    Качают: 14
Скачать торрент
Скачать торрент
Описание торрента

СообщениеДобавлено: 26 июл 2013 

#77

Информация о фильме
Название: В ад и обратно
Оригинальное название: Hell and Back Again
Год выхода: 2011
Жанр: Документальный, боевик, военный, история
Режиссер: Данфунг Деннис

О фильме:
В 2009 году отряд морской пехоты США штурмовал базу талибов на юге Афганистана. Едва высадившись с вертолетов, десантники оказались под перекрестным огнем. Вместе с ротой «Эхо» идет оператор Дэнфанг Деннис, его камера фиксирует реалии боя, у него на глазах получает ранение 25-летний сержант Нейтен Харрис. Документальный фильм, начавшийся как эпический рассказ о военных буднях, оказывается историей «личного апокалипсиса» человека, пытающегося справиться с болью — физической и психологической, и, вернувшись к прежней жизни, снова стать тем самым человеком, каким был до войны.



Общее
Уникальный идентификатор : 192316673614530358474765023488425991651 (0x90AED813C953EAB795BA2B5E7D5E1DE3)
Полное имя : D:ФильмыV.ad.i.obratno.2011.x264.HDRip.(AVC).ExKinoRay.mkv
Формат : Matroska
Версия формата : Version 2
Размер файла : 1,63 Гбайт
Продолжительность : 1 ч. 28 м.
Общий поток : 2641 Кбит/сек
Название фильма : V.ad.i.obratno.2011.x264.HDRip.(AVC).ExKinoRay (Enigma-Vladislav71)
Дата кодирования : UTC 2012-01-30 16:02:17
Программа кодирования : mkvmerge v4.0.0 ('The Stars were mine') сборка от Jun 6 2010 16:18:42
Библиотека кодирования : libebml v1.0.0 + libmatroska v1.0.0

Видео
Идентификатор : 1
Формат : AVC
Формат/Информация : Advanced Video Codec
Профиль формата : High@L4.1
Параметр CABAC формата : Да
Параметр ReFrames формата : 8 кадров
Идентификатор кодека : V_MPEG4/ISO/AVC
Продолжительность : 1 ч. 28 м.
Битрейт : 2000 Кбит/сек
Ширина : 1024 пикселя
Высота : 576 пикселей
Соотношение сторон : 16:9
Частота кадров : 23,976 кадра/сек
Цветовое пространство : YUV
Субдискретизация насыщенности : 4:2:0
Битовая глубина : 8 бит
Тип развёртки : Прогрессивная
Бит/(Пиксели*Кадры) : 0.141
Размер потока : 1,20 Гбайт (74%)
Библиотека кодирования : x264 core 116 r2074 2641b9e
Настройки программы : cabac=1 / ref=8 / deblock=1:-2:-2 / analyse=0x3:0x133 / me=umh / subme=11 / psy=1 / psy_rd=1.00:0.00 / mixed_ref=1 / me_range=48 / chroma_me=1 / trellis=2 / 8x8dct=1 / cqm=0 / deadzone=21,11 / fast_pskip=0 / chroma_qp_offset=-2 / threads=3 / sliced_threads=0 / nr=0 / decimate=1 / interlaced=0 / bluray_compat=0 / constrained_intra=0 / bframes=8 / b_pyramid=2 / b_adapt=2 / b_bias=0 / direct=3 / weightb=1 / open_gop=0 / weightp=2 / keyint=250 / keyint_min=23 / scenecut=40 / intra_refresh=0 / rc=2pass / mbtree=0 / bitrate=2000 / ratetol=1.0 / qcomp=0.60 / qpmin=10 / qpmax=51 / qpstep=4 / cplxblur=20.0 / qblur=0.5 / ip_ratio=1.40 / pb_ratio=1.30 / aq=2:1.00
Язык : English

Аудио #1
Идентификатор : 2
Формат : AC-3
Формат/Информация : Audio Coding 3
Расширение режима : CM (complete main)
Идентификатор кодека : A_AC3
Продолжительность : 1 ч. 28 м.
Вид битрейта : Постоянный
Битрейт : 192 Кбит/сек
Каналы : 2 канала
Расположение каналов : Front: L R
Частота : 48,0 КГц
Битовая глубина : 16 бит
Метод сжатия : С потерями
Размер потока : 122 Мбайт (7%)
Язык : Russian

Аудио #2
Идентификатор : 3
Формат : AC-3
Формат/Информация : Audio Coding 3
Расширение режима : CM (complete main)
Идентификатор кодека : A_AC3
Продолжительность : 1 ч. 28 м.
Вид битрейта : Постоянный
Битрейт : 448 Кбит/сек
Каналы : 6 каналов
Расположение каналов : Front: L C R, Side: L R, LFE
Частота : 48,0 КГц
Битовая глубина : 16 бит
Метод сжатия : С потерями
Размер потока : 284 Мбайт (17%)
Язык : English


Страна: США, Великобритания, Афганистан
Продолжительность: 01:28:29
Перевод: Профессиональный многоголосый
Дата релиза: 31.01.2012

Файл
Кодек: H.264
Качество: HDRip-AVC
Видео: MPEG-4 AVC, 2000 Кбит/с, 1024x576, 23.976 кадр/с
Звук: Русский (AC3, 2 ch, 192 Кбит/с), английский (AC3, 6 ch, 448 Кбит/с)

Семпл


Релиз от:

Авторы релиза:



   Похожие торренты   Торрент   Размер 
В этой теме нет новых непрочитанных сообщений. В ад и обратно / Hell and Back Again (2011) HDRip

25 | 11

1.36 ГБ

В этой теме нет новых непрочитанных сообщений. В ад и обратно / Hell and Back Again (2011) SATRip

2 | 3

704.58 МБ

В этой теме нет новых непрочитанных сообщений. В ад и обратно / Hell and Back (2015) DVDRip | SinisterSound

2053 | 316

918.78 МБ

В этой теме нет новых непрочитанных сообщений. Painkiller: Back to the Hell [1.05] [2010-2015] PC

364 | 20

3.44 ГБ

В этой теме нет новых непрочитанных сообщений. AC/DC - Highway to hell and Back in black (1979-1980) MP3

121 | 19

193.04 МБ

В этой теме нет новых непрочитанных сообщений. Задняя дверь в ад / В ад с черного хода / Back Door to Hell (1964) DVDRip от egoleshik | A

5 | 7

1.11 ГБ

В этой теме нет новых непрочитанных сообщений. Джек Ричер 2: Никогда не возвращайся / Jack Reacher: Never Go Back (2016) HDRip-AVC от ExKinoRay | iTunes

167 | 10

1.46 ГБ




Вы не можете начинать темы
Вы не можете отвечать на сообщения
Вы не можете редактировать свои сообщения
Вы не можете удалять свои сообщения
Вы не можете добавлять вложения

Перейти:  
Для Мосгорсуда, Роскомнадзора и рекламодателей: mosgorsud-torrent[собачка]yandex.ru
 Вход
ppkBB3cker v.2 © 2008-2014 @ PPK
[ Time : 0.039s | 15 Queries | GZIP : Off ]

Торрент трекер RUTOR.IN, Не можете зайти на rutor.org? Какой новый адрес рутор? Какое зеркало рутор? Не работает rutor.org и зеркала? Тогда наш торрент специально для вас. Rutor.in неофициальное зеркало rutor. В случае если у Вас заблокирован rutor или вдруг Вы не можете на него зайти, то Вы без труда сможете скачать бесплатно и без рекламы последние новинки кино, игр, сериалов и прочего у нас, на Rutor.in. Не нужно использовать прокси, чтобы зайти на рутор, достаточно воспользоваться нашим ресурсом. Все новые фильмы, игры, сериалы, книги и музыка за 2013 и 2014 годы через торрент бесплатно. Скачивайте фильмы в хорошем качестве, игры для пк, xbox, playstation без регистрации. У нас вы найдете новые Зарубежные сериалы и Русские сериалы 2013, 2014, 2015 годов. Оставайтесь с нами, качайте любимые фильмы, игры, сериалы, книги и музыку.
cron