img image001 image001 image001 image001 image001 image001 image001 image001 image001 image001 image001 image001 image001 image001 image001

Planets Sun Sun Sun
Статистика раздачи
Автор: Снежана | Размер: 399.92 МБ | Добавлен: 26 июл 2013
Раздают: 0    Качают: 1
Скачать торрент
Скачать торрент
Описание торрента

СообщениеДобавлено: 26 июл 2013 

#77

Железная леди: Усталость металла

Страна: Россия
Жанр: Документальный
Год выпуска: 2009
Продолжительность: 00:39:15
Перевод: Не требуется
Субтитры: нет
Режиссёр: Леонид Млечин
В ролях: Маргарет Тэтчер и др.

Описание фильма:
Фильм из цикла "Любовь и ненависть в большой политике". Маргарет Тэтчер - первая и пока единственная женщина, занимавшая пост премьер-министра Великобритании. Как она ладила с британскими джентльменами, которые в ту пору еще считали, что политика - это чисто мужское дело? Почему эта леди с такой легкостью начала войну с Аргентиной из-за Фолклендских островов? Маргарет Тэтчер - одна из немногих женщин-политиков, которые смогли сохранить брак. И все же Железная леди была очень одинокой женщиной, полностью посвятившей себя любимому делу. Не сложно было предположить, что ее жизнь опустеет, когда она лишится должности. Это означало, что впереди премьер-министра Великобритании неминуемо ждут слезы. Так оно в конце концов и случилось... В фильме Леонида Млечина "Железная леди. Усталость металла" - история взлетов и падений "самой властной женщины мира"



Качество: SATRip
Формат: AVI
Видео: 640x480 (1.33:1), 25 fps, DivX Codec 5.x or 6.x ~1286 kbps avg, 0.17 bit/pixel
Аудио: 48 kHz, MPEG Layer 3, 2 ch, ~128.00 kbps avg







Format : AVI
Format/Info : Audio Video Interleave
File size : 400 MiB
Duration : 39mn 14s
Overall bit rate : 1 425 Kbps
Writing application : FairUse Wizard - http://fairusewizard.com
Writing library : The best and REALLY easy backup tool

Video
ID : 0
Format : MPEG-4 Visual
Format settings, BVOP : 1
Format settings, QPel : No
Format settings, GMC : No warppoints
Format settings, Matrix : Default (H.263)
Muxing mode : Packed bitstream
Codec ID : DX50
Codec ID/Hint : DivX 5
Duration : 39mn 14s
Bit rate : 1 287 Kbps
Width : 640 pixels
Height : 480 pixels
Display aspect ratio : 4:3
Frame rate : 25.000 fps
Color space : YUV
Chroma subsampling : 4:2:0
Bit depth : 8 bits
Scan type : Progressive
Compression mode : Lossy
Bits/(Pixel*Frame) : 0.168
Stream size : 361 MiB (90%)
Writing library : DivX 6.8.5 (UTC 2009-08-20)

Audio
ID : 1
Format : MPEG Audio
Format version : Version 1
Format profile : Layer 3
Mode : Joint stereo
Mode extension : MS Stereo
Codec ID : 55
Codec ID/Hint : MP3
Duration : 39mn 14s
Bit rate mode : Constant
Bit rate : 128 Kbps
Channel(s) : 2 channels
Sampling rate : 48.0 KHz
Compression mode : Lossy
Stream size : 35.9 MiB (9%)
Alignment : Aligned on interleaves
Interleave, duration : 40 ms (1.00 video frame)
Interleave, preload duration : 504 ms
Writing library : LAME3.97
Encoding settings : -m j -V 4 -q 2 -lowpass 17 -b 128




   Похожие торренты   Торрент   Размер 
В этой теме нет новых непрочитанных сообщений. Маргарет Тэтчер: Железная леди / Margaret Thatcher: The Iron Lady (2011) DVDRip от Dego | P

23 | 2

1.36 ГБ

В этой теме нет новых непрочитанных сообщений. Маргарет Тэтчер: Железная леди / Margaret Thatcher: The Iron Lady (2011) DVD5 от Youtracker | P

0 | 2

4.37 ГБ

В этой теме нет новых непрочитанных сообщений. Маргарет Тэтчер: Железная леди / Margaret Thatcher: The Iron Lady (2011) DVD9 от Youtracker | P | лицензия

5 | 2

4.86 ГБ

В этой теме нет новых непрочитанных сообщений. Маргарет Тэтчер / Margaret (2009) DVDRip

13 | 1

1.37 ГБ

В этой теме нет новых непрочитанных сообщений. Покушения. Маргарет Тэтчер (2013) SATRip от MediaClub

1 | 3

358.68 МБ

В этой теме нет новых непрочитанных сообщений. OST - Железная леди / The Iron Lady from AGR (2011) MP3

1 | 1

128.54 МБ

В этой теме нет новых непрочитанных сообщений. Железная леди / The Iron Lady (2011) HDRip от Scarabey | A

0 | 2

742.57 МБ




Вы не можете начинать темы
Вы не можете отвечать на сообщения
Вы не можете редактировать свои сообщения
Вы не можете удалять свои сообщения
Вы не можете добавлять вложения

Перейти:  
Для Мосгорсуда, Роскомнадзора и рекламодателей: mosgorsud-torrent[собачка]yandex.ru
 Вход
ppkBB3cker v.2 © 2008-2014 @ PPK
[ Time : 0.092s | 14 Queries | GZIP : Off ]

Торрент трекер RUTOR.IN, Не можете зайти на rutor.org? Какой новый адрес рутор? Какое зеркало рутор? Не работает rutor.org и зеркала? Тогда наш торрент специально для вас. Rutor.in неофициальное зеркало rutor. В случае если у Вас заблокирован rutor или вдруг Вы не можете на него зайти, то Вы без труда сможете скачать бесплатно и без рекламы последние новинки кино, игр, сериалов и прочего у нас, на Rutor.in. Не нужно использовать прокси, чтобы зайти на рутор, достаточно воспользоваться нашим ресурсом. Все новые фильмы, игры, сериалы, книги и музыка за 2013 и 2014 годы через торрент бесплатно. Скачивайте фильмы в хорошем качестве, игры для пк, xbox, playstation без регистрации. У нас вы найдете новые Зарубежные сериалы и Русские сериалы 2013, 2014, 2015 годов. Оставайтесь с нами, качайте любимые фильмы, игры, сериалы, книги и музыку.