img image001 image001 image001 image001 image001 image001 image001 image001 image001 image001 image001 image001 image001 image001 image001

Planets Sun Sun Sun
Статистика раздачи
Автор: Снежана | Размер: 493.48 МБ | Добавлен: 26 июл 2013
Раздают: 4    Качают: 2
Скачать торрент
Скачать торрент
Описание торрента

СообщениеДобавлено: 26 июл 2013 

#77

Информация о фильме
Название: Загадка "Черного принца"
Год выхода: 2006
Жанр: Документальный
Режиссер: Артем Михалков

О фильме:
На рассвете 25 октября 1983 года США начинают секретную боевую операцию против дружественной Советскому Союзу республики Гренада. Американский десант высаживается на маленький остров в Карибском море. В разгар боев 30 октября в районе перемещения ВМС США неожиданно всплывает советская подводная лодка К-324. В СССР атомоходы этого класса называют "Щукой", в Америке же "Черным принцем". Появление лодки шокирует Пентагон. Лодка К-324 вооружена самыми современными ракетами с атомными боеголовками. 10 дней в Центральной Атлантике идет локальная война, которая грозит перерасти в 3-ю мировую.

Страна: Россия
Продолжительность: 00:40:39
Перевод: Оригинал

Файл
Кодек: XviD
Качество: SATRip
Видео: 640x480 (1.333); 25.000 fps; 1 559 Kbps
Звук: MP3; 48.0 KHz; 2 channels; 128 Kbps


General
Complete name : N:TVЗагадка черного принца.SATRip.avi
Format : AVI
Format/Info : Audio Video Interleave
File size : 493 MiB
Duration : 40mn 39s
Overall bit rate : 1 697 Kbps
Writing application : VirtualDubMod 1.5.10.3 | www.virtualdub-fr.org || (build 2550/release)
Writing library : VirtualDubMod build 2550/release

Video
ID : 0
Format : MPEG-4 Visual
Format profile : Advanced Simple@L5
Format settings, BVOP : 2
Format settings, QPel : No
Format settings, GMC : No warppoints
Format settings, Matrix : Default (H.263)
Codec ID : XVID
Codec ID/Hint : XviD
Duration : 40mn 39s
Bit rate : 1 559 Kbps
Width : 640 pixels
Height : 480 pixels
Display aspect ratio : 4:3
Frame rate : 25.000 fps
Color space : YUV
Chroma subsampling : 4:2:0
Bit depth : 8 bits
Scan type : Progressive
Compression mode : Lossy
Bits/(Pixel*Frame) : 0.203
Stream size : 453 MiB (92%)
Writing library : XviD 64

Audio
ID : 1
Format : MPEG Audio
Format version : Version 1
Format profile : Layer 3
Codec ID : 55
Codec ID/Hint : MP3
Duration : 40mn 39s
Bit rate mode : Constant
Bit rate : 128 Kbps
Channel(s) : 2 channels
Sampling rate : 48.0 KHz
Compression mode : Lossy
Stream size : 37.2 MiB (8%)
Alignment : Aligned on interleaves
Interleave, duration : 40 ms (1.00 video frame)
Interleave, preload duration : 504 ms
Writing library : LAME3.98r
Encoding settings : -m s -V 4 -q 2 -lowpass 17 -b 128



   Похожие торренты   Торрент   Размер 
В этой теме нет новых непрочитанных сообщений. Загадка "Черного принца" (2006) TVRip

0 | 3

341.35 МБ

В этой теме нет новых непрочитанных сообщений. Сокровища "Чёрного Принца" (2006) IPTVRip от Pshichko66

9 | 0

639.65 МБ

В этой теме нет новых непрочитанных сообщений. Орден Чёрного Орла / Закон Чёрного Орла / The Order of the Black Eagle (1987) SATRip | НТВ+

0 | 4

1.44 ГБ

В этой теме нет новых непрочитанных сообщений. Загадка 9/11 / 911 Mysteries Part 1: Demolitions (2006) SATRip

3 | 3

898.89 МБ

В этой теме нет новых непрочитанных сообщений. Роджер Желязны, Роберт Шекли - Принесите мне голову прекрасного принца (1993) (2006) M4B

6 | 3

345.18 МБ

В этой теме нет новых непрочитанных сообщений. Nat Geo Wild: Дунай. Европейская Амазонка. От Чёрного леса до Чёрного моря / Danube. Europe`s Amazon (2012) HDTV 1080i

2 | 14

3.46 ГБ

В этой теме нет новых непрочитанных сообщений. Свадьба принца Уильяма и Кейт Миддлтон [эфир от 29.04] (2011) SATRip

0 | 115

1.79 ГБ




Вы не можете начинать темы
Вы не можете отвечать на сообщения
Вы не можете редактировать свои сообщения
Вы не можете удалять свои сообщения
Вы не можете добавлять вложения

Перейти:  
Для Мосгорсуда, Роскомнадзора и рекламодателей: mosgorsud-torrent[собачка]yandex.ru
 Вход
ppkBB3cker v.2 © 2008-2014 @ PPK
[ Time : 0.050s | 14 Queries | GZIP : Off ]

Торрент трекер RUTOR.IN, Не можете зайти на rutor.org? Какой новый адрес рутор? Какое зеркало рутор? Не работает rutor.org и зеркала? Тогда наш торрент специально для вас. Rutor.in неофициальное зеркало rutor. В случае если у Вас заблокирован rutor или вдруг Вы не можете на него зайти, то Вы без труда сможете скачать бесплатно и без рекламы последние новинки кино, игр, сериалов и прочего у нас, на Rutor.in. Не нужно использовать прокси, чтобы зайти на рутор, достаточно воспользоваться нашим ресурсом. Все новые фильмы, игры, сериалы, книги и музыка за 2013 и 2014 годы через торрент бесплатно. Скачивайте фильмы в хорошем качестве, игры для пк, xbox, playstation без регистрации. У нас вы найдете новые Зарубежные сериалы и Русские сериалы 2013, 2014, 2015 годов. Оставайтесь с нами, качайте любимые фильмы, игры, сериалы, книги и музыку.