img image001 image001 image001 image001 image001 image001 image001 image001 image001 image001 image001 image001 image001 image001 image001

Planets Sun Sun Sun
Статистика раздачи
Автор: Снежана | Размер: 6.03 ГБ | Добавлен: 26 июл 2013
Раздают: 628    Качают: 68
Скачать торрент
Скачать торрент
Описание торрента

СообщениеДобавлено: 26 июл 2013 



Информация о фильме
Название: Одноэтажная Америка
Год выхода: 2008
Жанр: Документальный цикл
Режиссер: Валерий Спирин
В ролях: Владимир Познер, Иван Ургант, Брайн Кан

О фильме:
Советские писатели Илья Ильф и Евгений Петров приехали из Москвы в Нью-Йорк осенью 1935 года. Главной целью их путешествия было пересечь Соединенные Штаты Америки на автомобиле с Восточного побережья на Западное и вернуться обратно вдоль южной границы. Писатели провели в пути три с половиной месяца, проехали десять тысяч миль, посетили десятки городов и сотни населенных пунктов, встретились со знаменитостями тех лет (Эрнестом Хэмингуэем, Генри Фордом, Чарли Чаплиным), разговорили в пути обычных американских жителей....

Результатом этого масштабного путешествия стала книга "Одноэтажная Америка" (идея этого названия состояла в том, что многие вопринимают Америку как страну небоскребов, однако, на самом деле, все иначе – это страна, высота домов в которой зачастую не превышает и двух этажей). Книга была опубликована в России в 1937 году.

В основе документального сериала "Одноэтажная Америка" лежит идея "повторения" путешествия И. Ильфа и Е. Петрова. Цель авторов фильма – показать Америку какая она есть на самом деле, рассказать об особенностях американского характера, образе жизни, радостях и заботах средних американцев. А также, используя фотографии и хронику 1935 года, сравнить Америку времен Ильфа и Петрова и Америку начала 21 века.

Ведущие проекта – Владимир Познер и Иван Ургант – предлагают российским зрителям увидеть Америку такой, какой они никогда ее прежде не видели. Вместе с американским журналистом Брайном Каном ведущие фильма проехали 11 тысяч миль с Востока на Запад (их путь лежал из Нью-Йорка в Калифорнию по маршруту Нью-Йорк – Кливленд – Детройт – Пеория – Колорадо-Спрингс – Гэллап – Гранд Каньон – Лас Вегас – Сан-Франциско – Лос-Анджелес – Эль Пасо – Хьюстон - Новый Орлеан – Мемфис – Вашингтон - Нью-Йорк) и вернулись в Москву. Вторая поездка съемочной группы состоялась в ноябре 2006 года в Нью-Йорк и Вашингтон – тогда были закончены съемки последней серии фильма, посвященной главным и любимым американским праздникам - Дню Благодарения и Рождеству.

В основу сюжета легла идея повторения путешествия, совершенного И. Ильфом и Е. Петровым в 30-х годах XX века, и описанного ими в книге «Одноэтажная Америка», опубликованной в 1937 году. Это первая экранизация книги Ильфа и Петрова.
Каждая серия представляет собой фрагмент 60-дневного путешествия по США трёх ведущих — Владимира Познера, Ивана Урганта и Брайана Кана, за время которого они проехали на автомобиле 17 тысяч километров с Востока на Запад США и обратно (по маршруту Нью-Йорк — Кливленд — Детройт — Чикаго — Пеория — Гэллап — Санта-Фе — Колорадо-Спрингс — Гранд Каньон — Лас Вегас — Сан-Франциско — Лос-Анджелес — Эль Пасо — Хьюстон — Новый Орлеан — Мемфис — Вашингтон — Нью-Йорк), побывав в 25 штатах и 50 городах.
В каждой серии показано посещение ведущими одного или двух городов США, во время которого они рассказывают о местных достопримечательностях, особенностях образа жизни в данной местности, берут интервью у местных жителей, а также высказывают свое мнение об увиденном.
Цель авторов проекта — показать США как страну со всеми плюсами и минусами, такую, какая она есть на самом деле, рассказать об образе жизни среднего американца, об особенностях американского характера, а также сравнить Америку времен Ильфа и Петрова (Америку 30-х годов XX века), используя хронику и фотографии 1935 года, с Америкой начала XXI века.
Страна: Россия
Продолжительность: от 44 до 47 минут
Перевод: не требуется

Файл
Кодек: DivX 5
Качество: TVRip
Формат: AVI

Серии 1-6
Video:640x352 25.00fps 1065Kbps
Audio:48000Hz stereo 128Kbps

Серии 7-13
Video:640x352 25.00fps 1250Kbps
Audio:48000Hz stereo 128Kbps

Серии 14
Video:XVID 576x320 25.00fps 923Kbps
Audio:MPEG Audio Layer 3 32000Hz stereo 96Kbps

Серии 15-16
Video:DivX 5 704x528 25.00fps 1120Kbps
Audio:MPEG Audio Layer 3 48000Hz stereo 192Kbps

Субтитры: не требуются
MediaInfo :
General
Complete name : C:ВегасФильмыОдноэтажная АмерикаОдноэтажная Америка 02.avi
Format : AVI
Format/Info : Audio Video Interleave
File size : 399 MiB
Duration : 46mn 27s
Overall bit rate : 1 202 Kbps
Writing application : VirtualDubMod 1.5.10.2 (build 2540/release)
Writing library : VirtualDubMod build 2540/release

Video
ID : 0
Format : MPEG-4 Visual
Format profile : Advanced Simple@L5
Format settings, BVOP : Yes
Format settings, QPel : No
Format settings, GMC : No warppoints
Format settings, Matrix : Default (H.263)
Muxing mode : Packed bitstream
Codec ID : XVID
Codec ID/Hint : XviD
Duration : 46mn 27s
Bit rate : 1 064 Kbps
Width : 640 pixels
Height : 352 pixels
Display aspect ratio : 16:9
Frame rate : 25.000 fps
Color space : YUV
Chroma subsampling : 4:2:0
Bit depth : 8 bits
Scan type : Progressive
Compression mode : Lossy
Bits/(Pixel*Frame) : 0.189
Stream size : 354 MiB (89%)
Writing library : XviD 1.1.0 (UTC 2005-11-22)

Audio
ID : 1
Format : MPEG Audio
Format version : Version 1
Format profile : Layer 3
Codec ID : 55
Codec ID/Hint : MP3
Duration : 46mn 27s
Bit rate mode : Constant
Bit rate : 128 Kbps
Channel(s) : 2 channels
Sampling rate : 48.0 KHz
Compression mode : Lossy
Stream size : 42.5 MiB (11%)
Alignment : Aligned on interleaves
Interleave, duration : 40 ms (1.00 video frame)
Interleave, preload duration : 504 ms

General
Complete name : C:ВегасФильмыОдноэтажная АмерикаОдноэтажная Америка 07.avi
Format : AVI
Format/Info : Audio Video Interleave
File size : 373 MiB
Duration : 46mn 43s
Overall bit rate : 1 117 Kbps
Writing application : VirtualDubMod 1.5.10.2 (build 2540/release)
Writing library : VirtualDub build 28346/release

Video
ID : 0
Format : MPEG-4 Visual
Format settings, BVOP : Yes
Format settings, QPel : No
Format settings, GMC : No warppoints
Format settings, Matrix : Default (H.263)
Muxing mode : Packed bitstream
Codec ID : DX50
Codec ID/Hint : DivX 5
Duration : 46mn 43s
Bit rate : 979 Kbps
Width : 640 pixels
Height : 352 pixels
Display aspect ratio : 16:9
Frame rate : 25.000 fps
Color space : YUV
Chroma subsampling : 4:2:0
Bit depth : 8 bits
Scan type : Progressive
Compression mode : Lossy
Bits/(Pixel*Frame) : 0.174
Stream size : 327 MiB (88%)
Writing library : DivX 6.8.0 (UTC 2007-12-04)

Audio
ID : 1
Format : MPEG Audio
Format version : Version 1
Format profile : Layer 3
Mode : Joint stereo
Mode extension : MS Stereo
Codec ID : 55
Codec ID/Hint : MP3
Duration : 46mn 43s
Bit rate mode : Constant
Bit rate : 128 Kbps
Channel(s) : 2 channels
Sampling rate : 48.0 KHz
Compression mode : Lossy
Delay relative to video : 8ms
Stream size : 42.8 MiB (11%)
Alignment : Split accross interleaves
Interleave, duration : 40 ms (1.00 video frame)
Interleave, preload duration : 500 ms

General
Complete name : C:ВегасФильмыОдноэтажная АмерикаОдноэтажная Америка 14.avi
Format : AVI
Format/Info : Audio Video Interleave
File size : 338 MiB
Duration : 45mn 54s
Overall bit rate : 1 029 Kbps
Writing application : VirtualDubMod 1.5.10.2 (build 2540/release)
Writing library : VirtualDubMod build 2540/release

Video
ID : 0
Format : MPEG-4 Visual
Format profile : Advanced Simple@L5
Format settings, BVOP : Yes
Format settings, QPel : No
Format settings, GMC : No warppoints
Format settings, Matrix : Default (H.263)
Muxing mode : Packed bitstream
Codec ID : XVID
Codec ID/Hint : XviD
Duration : 45mn 54s
Bit rate : 924 Kbps
Width : 576 pixels
Height : 320 pixels
Display aspect ratio : 16:9
Frame rate : 25.000 fps
Color space : YUV
Chroma subsampling : 4:2:0
Bit depth : 8 bits
Scan type : Progressive
Compression mode : Lossy
Bits/(Pixel*Frame) : 0.200
Stream size : 303 MiB (90%)
Writing library : XviD 1.2.0.dev47 (UTC 2006-11-01)

Audio
ID : 1
Format : MPEG Audio
Format version : Version 1
Format profile : Layer 3
Mode : Joint stereo
Mode extension : MS Stereo
Codec ID : 55
Codec ID/Hint : MP3
Duration : 45mn 54s
Bit rate mode : Constant
Bit rate : 96.0 Kbps
Channel(s) : 2 channels
Sampling rate : 32.0 KHz
Compression mode : Lossy
Stream size : 31.5 MiB (9%)
Alignment : Aligned on interleaves
Interleave, duration : 40 ms (1.00 video frame)
Interleave, preload duration : 504 ms

General
Complete name : C:ВегасФильмыОдноэтажная АмерикаОдноэтажная Америка 16.avi
Format : AVI
Format/Info : Audio Video Interleave
File size : 470 MiB
Duration : 47mn 15s
Overall bit rate : 1 390 Kbps
Writing library : VirtualDub build 28346/release

Video
ID : 0
Format : MPEG-4 Visual
Format settings, BVOP : Yes
Format settings, QPel : No
Format settings, GMC : No warppoints
Format settings, Matrix : Default (H.263)
Muxing mode : Packed bitstream
Codec ID : DX50
Codec ID/Hint : DivX 5
Duration : 47mn 15s
Bit rate : 1 188 Kbps
Width : 704 pixels
Height : 528 pixels
Display aspect ratio : 4:3
Frame rate : 25.000 fps
Color space : YUV
Chroma subsampling : 4:2:0
Bit depth : 8 bits
Scan type : Progressive
Compression mode : Lossy
Bits/(Pixel*Frame) : 0.128
Stream size : 401 MiB (85%)
Writing library : DivX 6.7.0 (UTC 2007-09-20)

Audio
ID : 1
Format : MPEG Audio
Format version : Version 1
Format profile : Layer 3
Mode : Joint stereo
Mode extension : MS Stereo
Codec ID : 55
Codec ID/Hint : MP3
Duration : 47mn 15s
Bit rate mode : Constant
Bit rate : 192 Kbps
Channel(s) : 2 channels
Sampling rate : 48.0 KHz
Compression mode : Lossy
Delay relative to video : 2s 200ms
Stream size : 64.9 MiB (14%)
Alignment : Split accross interleaves
Interleave, duration : 40 ms (1.00 video frame)
Interleave, preload duration : 500 ms








   Похожие торренты   Торрент   Размер 
В этой теме нет новых непрочитанных сообщений. Илья Ильф, Евгений Петров - Одноэтажная Америка (1937) (2008) MP3

126 | 4

1.11 ГБ

В этой теме нет новых непрочитанных сообщений. Владимир Познер, Брайан Кан, Иван Ургант - Одноэтажная Америка (2008) (2011) MP3

95 | 5

609.94 МБ

В этой теме нет новых непрочитанных сообщений. Америка / Amerika [01-05 из 05] (1987) TVRip

30 | 9

7.24 ГБ

В этой теме нет новых непрочитанных сообщений. Америка без грима (2006) TVRip

4 | 4

528.34 МБ

В этой теме нет новых непрочитанных сообщений. Русская карта. Фильм 2. Или Почему Россия не Америка (2002) TVRip

0 | 1

325.79 МБ

В этой теме нет новых непрочитанных сообщений. Мир Наизнанку. Латинская Америка / Світ навиворіт. Латинська Америка [S06] (2015) HDTVRip 1080p

40 | 43

19.6 ГБ

В этой теме нет новых непрочитанных сообщений. Православная Америка (США) (2008) DVDRip

1 | 2

398.95 МБ




Вы не можете начинать темы
Вы не можете отвечать на сообщения
Вы не можете редактировать свои сообщения
Вы не можете удалять свои сообщения
Вы не можете добавлять вложения

Перейти:  
Для Мосгорсуда, Роскомнадзора и рекламодателей: mosgorsud-torrent[собачка]yandex.ru
 Вход
ppkBB3cker v.2 © 2008-2014 @ PPK
[ Time : 0.044s | 15 Queries | GZIP : Off ]

Торрент трекер RUTOR.IN, Не можете зайти на rutor.org? Какой новый адрес рутор? Какое зеркало рутор? Не работает rutor.org и зеркала? Тогда наш торрент специально для вас. Rutor.in неофициальное зеркало rutor. В случае если у Вас заблокирован rutor или вдруг Вы не можете на него зайти, то Вы без труда сможете скачать бесплатно и без рекламы последние новинки кино, игр, сериалов и прочего у нас, на Rutor.in. Не нужно использовать прокси, чтобы зайти на рутор, достаточно воспользоваться нашим ресурсом. Все новые фильмы, игры, сериалы, книги и музыка за 2013 и 2014 годы через торрент бесплатно. Скачивайте фильмы в хорошем качестве, игры для пк, xbox, playstation без регистрации. У нас вы найдете новые Зарубежные сериалы и Русские сериалы 2013, 2014, 2015 годов. Оставайтесь с нами, качайте любимые фильмы, игры, сериалы, книги и музыку.
cron