img image001 image001 image001 image001 image001 image001 image001 image001 image001 image001 image001 image001 image001 image001 image001

Planets Sun Sun Sun
Статистика раздачи
Автор: Снежана | Размер: 392.72 МБ | Добавлен: 26 июл 2013
Раздают: 18    Качают: 5
Скачать торрент
Скачать торрент
Описание торрента

СообщениеДобавлено: 26 июл 2013 

#77

Информация о фильме
Название: Замбия
Оригинальное название: Zambia
Ведущий Bеar Grylls
Год выхода: 2008
Жанр: документальный
Выпущено: Discovery
Перевод: закадровый (профессиональный одноголосый)

Река Замбези . Протяженность её бурных вод составляет 1500 километров . Это четвертая по длине река в Африке . Задача ведущего (Беар Гриллс) выбраться из реки и дойти до точки эвакуации .
Беар Гриллс - эксперт, по выживанию, бывший спецназовец S.A.S., покажет и расскажет, как выжить в этой дикой глуши !

Видео: AVC, 688x432, 25 fps, 1200 kbps, 0.155 bit/pixel
Аудио: AAC (LC), 32 kHz, 1 ch, 56 kbps

Общее
Формат : MPEG-4
Профиль формата : Base Media
Идентификатор кодека : isom
Размер файла : 393 Мбайт
Продолжительность : 43 м.
Режим общего битрейта : Переменный
Общий поток : 1260 Кбит/сек
Дата кодирования : UTC 2012-03-22 14:40:27
Дата пометки : UTC 2012-03-22 14:40:27
Программа кодирования : My MP4Box GUI 0.5.5.4

Видео
Идентификатор : 1
Формат : AVC
Формат/Информация : Advanced Video Codec
Профиль формата : High@L3.1
Параметр CABAC формата : Да
Параметр ReFrames формата : 8 кадров
Идентификатор кодека : avc1
Идентификатор кодека/Информация : Advanced Video Coding
Продолжительность : 43 м.
Битрейт : 1201 Кбит/сек
Максимальный битрейт : 3868 Кбит/сек
Ширина : 688 пикселей
Высота : 432 пикселя
Соотношение сторон : 1,593
Режим частоты кадров : Постоянный
Частота кадров : 25,000 кадров/сек
Цветовое пространство : YUV
Субдискретизация насыщенности : 4:2:0
Битовая глубина : 8 бит
Тип развёртки : Прогрессивная
Бит/(Пиксели*Кадры) : 0.162
Размер потока : 374 Мбайт (95%)
Заголовок : Video
Библиотека кодирования : x264 core 119 r2106 07efeb4
Настройки программы : cabac=1 / ref=8 / deblock=1:0:0 / analyse=0x3:0x133 / me=umh / subme=9 / psy=1 / psy_rd=1.00:0.00 / mixed_ref=1 / me_range=16 / chroma_me=1 / trellis=2 / 8x8dct=1 / cqm=0 / deadzone=21,11 / fast_pskip=1 / chroma_qp_offset=-2 / threads=6 / sliced_threads=0 / nr=0 / decimate=1 / interlaced=0 / bluray_compat=0 / constrained_intra=0 / bframes=3 / b_pyramid=2 / b_adapt=2 / b_bias=0 / direct=3 / weightb=1 / open_gop=0 / weightp=2 / keyint=250 / keyint_min=25 / scenecut=40 / intra_refresh=0 / rc_lookahead=60 / rc=2pass / mbtree=1 / bitrate=1201 / ratetol=1.0 / qcomp=0.60 / qpmin=0 / qpmax=69 / qpstep=4 / cplxblur=20.0 / qblur=0.5 / ip_ratio=1.40 / aq=1:1.00
Дата кодирования : UTC 2012-03-22 21:11:52
Дата пометки : UTC 2012-03-22 14:40:37

Аудио
Идентификатор : 2
Формат : AAC
Формат/Информация : Advanced Audio Codec
Профиль формата : LC
Идентификатор кодека : 40
Продолжительность : 43 м.
Вид битрейта : Переменный
Битрейт : 56,0 Кбит/сек
Максимальный битрейт : 60,8 Кбит/сек
Каналы : 1 канал
Расположение каналов : Front: C
Частота : 32,0 КГц
Метод сжатия : С потерями
Размер потока : 17,4 Мбайт (4%)
Язык : English
Дата кодирования : UTC 2012-03-22 14:40:37
Дата пометки : UTC 2012-03-22 14:40:37





   Похожие торренты   Торрент   Размер 
В этой теме нет новых непрочитанных сообщений. Выжить любой ценой: Замбия, Намибия / Ultimate Survival: Zambia, Namibia (2008) SATRip

0 | 2

961.74 МБ

В этой теме нет новых непрочитанных сообщений. Discovery: Выжить любой ценой: Сибирь - 1 / Ultimate Survival: Siberia - 1 (2008) TVRip-AVC

161 | 7

388.84 МБ

В этой теме нет новых непрочитанных сообщений. Discovery: Выжить любой ценой: Намибия / Ultimate Survival: Namibia (2008) TVRip-AVC

23 | 6

388.39 МБ

В этой теме нет новых непрочитанных сообщений. Discovery: Выжить любой ценой: Сибирь - 2 / Ultimate Survival: Siberia - 2 (2008) TVRip-AVC

145 | 7

386.81 МБ

В этой теме нет новых непрочитанных сообщений. Discovery: Выжить любой ценой: Вулканический Пояс - 1 / Ultimate Survival: Jungle Swamp (2008) TVRip-AVC

25 | 3

388.9 МБ

В этой теме нет новых непрочитанных сообщений. Discovery: Выжить любой ценой: Вулканический Пояс - 2 / Ultimate Survival: Jungle Swamp (2008) TVRip-AVC

22 | 2

397.07 МБ

В этой теме нет новых непрочитанных сообщений. Discovery: Выжить любой ценой: Юкон / Ultimate Survival: Yukon (2009) TVRip-AVC

85 | 7

396.27 МБ




Вы не можете начинать темы
Вы не можете отвечать на сообщения
Вы не можете редактировать свои сообщения
Вы не можете удалять свои сообщения
Вы не можете добавлять вложения

Перейти:  
Для Мосгорсуда, Роскомнадзора и рекламодателей: mosgorsud-torrent[собачка]yandex.ru
 Вход
ppkBB3cker v.2 © 2008-2014 @ PPK
[ Time : 1.086s | 14 Queries | GZIP : On ]

Торрент трекер RUTOR.IN, Не можете зайти на rutor.org? Какой новый адрес рутор? Какое зеркало рутор? Не работает rutor.org и зеркала? Тогда наш торрент специально для вас. Rutor.in неофициальное зеркало rutor. В случае если у Вас заблокирован rutor или вдруг Вы не можете на него зайти, то Вы без труда сможете скачать бесплатно и без рекламы последние новинки кино, игр, сериалов и прочего у нас, на Rutor.in. Не нужно использовать прокси, чтобы зайти на рутор, достаточно воспользоваться нашим ресурсом. Все новые фильмы, игры, сериалы, книги и музыка за 2013 и 2014 годы через торрент бесплатно. Скачивайте фильмы в хорошем качестве, игры для пк, xbox, playstation без регистрации. У нас вы найдете новые Зарубежные сериалы и Русские сериалы 2013, 2014, 2015 годов. Оставайтесь с нами, качайте любимые фильмы, игры, сериалы, книги и музыку.