[phpBB Debug] PHP Notice: in file [ROOT]/includes/functions_similar_topics.php on line 448: Undefined variable: magnet_src_link
[phpBB Debug] PHP Notice: in file [ROOT]/includes/functions_similar_topics.php on line 449: Undefined variable: magnet_src_img
[phpBB Debug] PHP Notice: in file [ROOT]/includes/functions_similar_topics.php on line 448: Undefined variable: magnet_src_link
[phpBB Debug] PHP Notice: in file [ROOT]/includes/functions_similar_topics.php on line 449: Undefined variable: magnet_src_img
[phpBB Debug] PHP Notice: in file [ROOT]/includes/functions_similar_topics.php on line 448: Undefined variable: magnet_src_link
[phpBB Debug] PHP Notice: in file [ROOT]/includes/functions_similar_topics.php on line 449: Undefined variable: magnet_src_img
[phpBB Debug] PHP Notice: in file [ROOT]/includes/functions_similar_topics.php on line 448: Undefined variable: magnet_src_link
[phpBB Debug] PHP Notice: in file [ROOT]/includes/functions_similar_topics.php on line 449: Undefined variable: magnet_src_img
[phpBB Debug] PHP Notice: in file [ROOT]/includes/functions_similar_topics.php on line 448: Undefined variable: magnet_src_link
[phpBB Debug] PHP Notice: in file [ROOT]/includes/functions_similar_topics.php on line 449: Undefined variable: magnet_src_img
[phpBB Debug] PHP Notice: in file [ROOT]/includes/functions_similar_topics.php on line 448: Undefined variable: magnet_src_link
[phpBB Debug] PHP Notice: in file [ROOT]/includes/functions_similar_topics.php on line 449: Undefined variable: magnet_src_img
[phpBB Debug] PHP Notice: in file [ROOT]/includes/functions_similar_topics.php on line 448: Undefined variable: magnet_src_link
[phpBB Debug] PHP Notice: in file [ROOT]/includes/functions_similar_topics.php on line 449: Undefined variable: magnet_src_img
Реставратор автомобилей / Car Czar (2009) IPTVRip - Скачать торрент
img image001 image001 image001 image001 image001 image001 image001 image001 image001 image001 image001 image001 image001 image001 image001

Planets Sun Sun Sun
Статистика раздачи
Автор: Снежана | Размер: 2.09 ГБ | Добавлен: 26 июл 2013
Раздают: 10    Качают: 7
Описание торрента

СообщениеДобавлено: 26 июл 2013 

#77

Русское название: Реставратор автомобилей
Оригинальное название: Car Czar
Год выпуска: 2009
Жанр: Документальный
Страна: Австралия
Перевод: Одноголосый закадровый, Профессиональный

Описание фильма:
Алан Льюэнтал путешествует по всей Америке, чтобы найти и вызволить редкие классические автомобили из запыленных гаражей и скотных дворов, а затем превратить их в ценные экземпляры автомобильной истории. Автомобильно-архелогические приключения для Алана - не только удовольствие, но и работа. Вместе с командой высококвалифицированных реставраторов-техников Алан завоевал мировую репутацию за безупречное восстановление ржавых развалин, которая помогает ему продавать воскресшие классические автомобили за баснословные деньги.

Продолжительность: 3 x ~00:50:00
Качество: IPTVRip
Формат: AVI
Видео кодек: XviD
Битрейт видео: ~1856 kbps avg
Размер кадра: 720x416, 720x432
Аудио: MP3, 2 ch ~96, 128 Kbps avg





Описание:
На пути превращения в «конфетку» автомобиля-амфибии 1967 года выпуска команда реставраторов сталкивается с препятствиями в виде крайне редких запчастей и дорогостоящего ремонта. Реставраторы вступают в гонку со временем, чтобы успеть превратить ржавую развалину в «гвоздь аукциона». Амфикар - это диковинка немецкого производства. Это не только машина, но и лодка!

Продолжительность: 00:50:19

Качество: IPTVRip
Видео кодек: XviD
Битрейт видео: ~1856 kbps avg
Размер кадра: 720x416
Аудио: MP3, 2 ch ~96 Kbps avg

Скриншоты:

Общее
Полное имя : F:Реставратор автомобилейAmphicar 1967.avi
Формат : AVI
Формат/Информация : Audio Video Interleave
Размер файла : 699 Мбайт
Продолжительность : 50 м.
Режим общего битрейта : Переменный
Общий поток : 1942 Кбит/сек
Программа кодирования : VirtualDubMod 1.5.4.1 (build 2178/release)
Библиотека кодирования : VirtualDubMod build 2178/release

Видео
Идентификатор : 0
Формат : MPEG-4 Visual
Профиль формата : Advanced Simple@L5
Параметр BVOP формата : 1
Параметр QPel формата : Нет
Параметр GMC формата : Без точки перехода
Параметр матрицы формата : Выборочная
Идентификатор кодека : XVID
Идентификатор кодека/Подсказка : XviD
Продолжительность : 50 м.
Битрейт : 1856 Кбит/сек
Ширина : 720 пикселей
Высота : 416 пикселей
Соотношение сторон : 16:9
Частота кадров : 25,000 кадров/сек
Цветовое пространство : YUV
Субдискретизация насыщенности : 4:2:0
Битовая глубина : 8 бит
Тип развёртки : Прогрессивная
Метод сжатия : С потерями
Бит/(Пиксели*Кадры) : 0.248
Размер потока : 668 Мбайт (96%)
Библиотека кодирования : XviD 1.2.1 (UTC 2008-12-04)

Аудио
Идентификатор : 1
Формат : MPEG Audio
Версия формата : Version 1
Профиль формата : Layer 3
Режим : Joint stereo
Расширение режима : MS Stereo
Идентификатор кодека : 55
Идентификатор кодека/Подсказка : MP3
Продолжительность : 50 м.
Вид битрейта : Переменный
Битрейт : 75,6 Кбит/сек
Номинальный битрейт : 96,0 Кбит/сек
Каналы : 2 канала
Частота : 32,0 КГц
Метод сжатия : С потерями
Размер потока : 27,2 Мбайт (4%)
Выравнивание : Соединение по промежуткам
Продолжительность промежутка : 36 мс. (0,90 видеокадр)
Время предзагрузки промежутка : 537 мс.
Библиотека кодирования : LAME3.98r
Настройки программы : -m j -V 4 -q 2 -lowpass 15.1 --abr


Описание:
В этой серии реставрируется протюнингованный «Олдсмобиль» 1954 года при помощи авто-археолога, который, чтобы разгадать тайну этого уникального произведения искусства, обращается к историческому фото-архиву.

Продолжительность: 00:50:54

Качество: IPTVRip
Видео кодек: XviD
Битрейт видео: ~1785 kbps avg
Размер кадра: 720x432
Аудио: MP3, 2 ch ~128 Kbps avg

Скриншоты:

Общее
Полное имя : F:Реставратор автомобилейOldsmobile 1954.avi
Формат : AVI
Формат/Информация : Audio Video Interleave
Размер файла : 701 Мбайт
Продолжительность : 50 м.
Общий поток : 1925 Кбит/сек

Видео
Идентификатор : 0
Формат : MPEG-4 Visual
Профиль формата : Advanced Simple@L4
Параметр BVOP формата : Нет
Параметр QPel формата : Нет
Параметр GMC формата : Без точки перехода
Параметр матрицы формата : Default (H.263)
Идентификатор кодека : XVID
Идентификатор кодека/Подсказка : XviD
Продолжительность : 50 м.
Битрейт : 1785 Кбит/сек
Ширина : 720 пикселей
Высота : 432 пикселя
Соотношение сторон : 1,667
Частота кадров : 25,000 кадров/сек
Цветовое пространство : YUV
Субдискретизация насыщенности : 4:2:0
Битовая глубина : 8 бит
Тип развёртки : Прогрессивная
Метод сжатия : С потерями
Бит/(Пиксели*Кадры) : 0.230
Размер потока : 650 Мбайт (93%)

Аудио
Идентификатор : 1
Формат : MPEG Audio
Версия формата : Version 1
Профиль формата : Layer 3
Идентификатор кодека : 55
Идентификатор кодека/Подсказка : MP3
Продолжительность : 50 м.
Вид битрейта : Постоянный
Битрейт : 128 Кбит/сек
Каналы : 2 канала
Частота : 44,1 КГц
Метод сжатия : С потерями
Размер потока : 46,6 Мбайт (7%)
Выравнивание : Разделение по промежуткам
Продолжительность промежутка : 26 мс. (0,65 видеокадр)


Описание:
Чтобы возродить к жизни “Шевроле Камаро Зет 28” 1969 года команде придется сразиться с разрушающим воздействием коррозии и побегать в поисках оригинальных запчастей.

Продолжительность: 00:51:29

Качество: IPTVRip
Видео кодек: XviD
Битрейт видео: ~1874 kbps avg
Размер кадра: 720x432
Аудио: MP3, 2 ch ~128 Kbps avg

Скриншоты:

Общее
Полное имя : F:Реставратор автомобилейChevrolet Camaro Z28 1969.avi
Формат : AVI
Формат/Информация : Audio Video Interleave
Размер файла : 742 Мбайт
Продолжительность : 51 м.
Общий поток : 2015 Кбит/сек

Видео
Идентификатор : 0
Формат : MPEG-4 Visual
Профиль формата : Advanced Simple@L4
Параметр BVOP формата : Нет
Параметр QPel формата : Нет
Параметр GMC формата : Без точки перехода
Параметр матрицы формата : Default (H.263)
Идентификатор кодека : XVID
Идентификатор кодека/Подсказка : XviD
Продолжительность : 51 м.
Битрейт : 1874 Кбит/сек
Ширина : 720 пикселей
Высота : 432 пикселя
Соотношение сторон : 1,667
Частота кадров : 25,000 кадров/сек
Цветовое пространство : YUV
Субдискретизация насыщенности : 4:2:0
Битовая глубина : 8 бит
Тип развёртки : Прогрессивная
Метод сжатия : С потерями
Бит/(Пиксели*Кадры) : 0.241
Размер потока : 690 Мбайт (93%)

Аудио
Идентификатор : 1
Формат : MPEG Audio
Версия формата : Version 1
Профиль формата : Layer 3
Идентификатор кодека : 55
Идентификатор кодека/Подсказка : MP3
Продолжительность : 51 м.
Вид битрейта : Постоянный
Битрейт : 128 Кбит/сек
Каналы : 2 канала
Частота : 44,1 КГц
Метод сжатия : С потерями
Размер потока : 47,1 Мбайт (6%)
Выравнивание : Разделение по промежуткам
Продолжительность промежутка : 26 мс. (0,65 видеокадр)
Библиотека кодирования : LAMEЄЄЄ




   Похожие торренты   Торрент   Размер 
В этой теме нет новых непрочитанных сообщений. 1.Kla$ & Czar - Твою Мать-2 (2011) MP3

2 | 3

109.55 МБ

В этой теме нет новых непрочитанных сообщений. Czar - Мои Манеры (2008) MP3 от GeneralFilm

1 | 1

100.84 МБ

В этой теме нет новых непрочитанных сообщений. Rap Woyska (Czar & 1.Kla$) - Трекография (1998-2012) MP3

6 | 10

557.57 МБ

В этой теме нет новых непрочитанных сообщений. 1.Kla$ ft.Czar - Твою Мать (2007) MP3 от Generalfilm

0 | 2

117.52 МБ

В этой теме нет новых непрочитанных сообщений. Rap Woyska (Czar & 1.Kla$) - Дискография (2002-2011) MP3

0 | 39

710.17 МБ

В этой теме нет новых непрочитанных сообщений. Czar - Phantom (2013) MP3 от BitTracker Music

3 | 2

135 МБ

В этой теме нет новых непрочитанных сообщений. Борис Христов - Дьявол, монах и царь / Boris Christoff - Devil, monk and czar (2011) FLAC

0 | 2

2.24 ГБ




Вы не можете начинать темы
Вы не можете отвечать на сообщения
Вы не можете редактировать свои сообщения
Вы не можете удалять свои сообщения
Вы не можете добавлять вложения

Перейти:  
Для Мосгорсуда, Роскомнадзора и рекламодателей: mosgorsud-torrent[собачка]yandex.ru
 Вход
ppkBB3cker v.2 © 2008-2014 @ PPK
[ Time : 7.849s | 15 Queries | GZIP : Off ]

Торрент трекер RUTOR.IN, Не можете зайти на rutor.org? Какой новый адрес рутор? Какое зеркало рутор? Не работает rutor.org и зеркала? Тогда наш торрент специально для вас. Rutor.in неофициальное зеркало rutor. В случае если у Вас заблокирован rutor или вдруг Вы не можете на него зайти, то Вы без труда сможете скачать бесплатно и без рекламы последние новинки кино, игр, сериалов и прочего у нас, на Rutor.in. Не нужно использовать прокси, чтобы зайти на рутор, достаточно воспользоваться нашим ресурсом. Все новые фильмы, игры, сериалы, книги и музыка за 2013 и 2014 годы через торрент бесплатно. Скачивайте фильмы в хорошем качестве, игры для пк, xbox, playstation без регистрации. У нас вы найдете новые Зарубежные сериалы и Русские сериалы 2013, 2014, 2015 годов. Оставайтесь с нами, качайте любимые фильмы, игры, сериалы, книги и музыку.
cron