img image001 image001 image001 image001 image001 image001 image001 image001 image001 image001 image001 image001 image001 image001 image001

Planets Sun Sun Sun
Статистика раздачи
Автор: Снежана | Размер: 464 МБ | Добавлен: 26 июл 2013
Раздают: 6    Качают: 3
Скачать торрент
Скачать торрент
Описание торрента

СообщениеДобавлено: 26 июл 2013 

#77

Информация о фильме
Название: Метро
Год выхода: 2012
Жанр: документальный
Выпущено: АТН
Перевод: не требуется

11 апреля 2011 года . Станция минского метро . В столице час пик. Перрон и прибывающие поезда набиты людьми . Через 50 - т секунд акт террора разделит их на живых и мертвых . Террористов ищут все правоохранительные органы страны . Всю ночь оперативники покадрово изучают видео с камер всех станций минской подземки .
Взрыв, потрясший всю Беларусь . Взрыв, оборвавший пятнадцать жизней . Смотрите как готовилось и осуществлялось самое кровавое преступление в новейшей истории Беларуси .

Видео: XviD, 720x454, (1,698), 25 fps, 1200 kbps, 0.116 bit/pixel
Аудио: MP3, 48 kHz, 1 ch, 64 kbps

Формат : AVI
Формат/Информация : Audio Video Interleave
Размер файла : 464 Мбайт
Продолжительность : 50 м.
Общий поток : 1274 Кбит/сек
Программа кодирования : VirtualDubMod 1.5.10.3 | www.virtualdub-fr.org || (build 2550/release)
Библиотека кодирования : VirtualDubMod build 2550/release

Видео
Идентификатор : 0
Формат : MPEG-4 Visual
Профиль формата : Advanced Simple@L5
Параметр BVOP формата : 2
Параметр QPel формата : Нет
Параметр GMC формата : Без точки перехода
Параметр матрицы формата : Default (MPEG)
Режим смешивания : Сжатый битовый поток
Идентификатор кодека : XVID
Идентификатор кодека/Подсказка : XviD
Продолжительность : 50 м.
Битрейт : 1200 Кбит/сек
Ширина : 720 пикселей
Высота : 424 пикселя
Соотношение сторон : 1,698
Частота кадров : 25,000 кадров/сек
Цветовое пространство : YUV
Субдискретизация насыщенности : 4:2:0
Битовая глубина : 8 бит
Тип развёртки : Прогрессивная
Метод сжатия : С потерями
Бит/(Пиксели*Кадры) : 0.157
Размер потока : 437 Мбайт (94%)
Библиотека кодирования : XviD 1.2.1 (UTC 2008-12-04)

Аудио
Идентификатор : 1
Формат : MPEG Audio
Версия формата : Version 1
Профиль формата : Layer 3
Идентификатор кодека : 55
Идентификатор кодека/Подсказка : MP3
Продолжительность : 50 м.
Вид битрейта : Постоянный
Битрейт : 64,0 Кбит/сек
Каналы : 1 канал
Частота : 48,0 КГц
Метод сжатия : С потерями
Размер потока : 23,3 Мбайт (5%)
Выравнивание : Соединение по промежуткам
Продолжительность промежутка : 40 мс. (1,00 видеокадр)
Время предзагрузки промежутка : 504 мс.


Скриншоты



   Похожие торренты   Торрент   Размер 
В этой теме нет новых непрочитанных сообщений. Глуховский Дмитрий и др. - Метро 2033, Метро 2034 (2006-2010) MP3

182 | 128

917.91 МБ

В этой теме нет новых непрочитанных сообщений. Метро (2012) BDRip 1080p

11 | 3

11.5 ГБ

В этой теме нет новых непрочитанных сообщений. Метро (2012) HDRip | КПК | Лицензия

35 | 3

560.28 МБ

В этой теме нет новых непрочитанных сообщений. Метро (2012) BDRip 720p | 60 FPS

8 | 6

7.24 ГБ

В этой теме нет новых непрочитанных сообщений. Метро (2012) HDTVRip от Deadmauvlad

306 | 24

2.18 ГБ

В этой теме нет новых непрочитанных сообщений. Метро (2012) HDTVRip от Deadmauvlad

782 | 33

1.45 ГБ

В этой теме нет новых непрочитанных сообщений. Метро (2012) BDRip 720p

5 | 3

6.89 ГБ




Вы не можете начинать темы
Вы не можете отвечать на сообщения
Вы не можете редактировать свои сообщения
Вы не можете удалять свои сообщения
Вы не можете добавлять вложения

Перейти:  
Для Мосгорсуда, Роскомнадзора и рекламодателей: mosgorsud-torrent[собачка]yandex.ru
 Вход
ppkBB3cker v.2 © 2008-2014 @ PPK
[ Time : 0.039s | 16 Queries | GZIP : Off ]

Торрент трекер RUTOR.IN, Не можете зайти на rutor.org? Какой новый адрес рутор? Какое зеркало рутор? Не работает rutor.org и зеркала? Тогда наш торрент специально для вас. Rutor.in неофициальное зеркало rutor. В случае если у Вас заблокирован rutor или вдруг Вы не можете на него зайти, то Вы без труда сможете скачать бесплатно и без рекламы последние новинки кино, игр, сериалов и прочего у нас, на Rutor.in. Не нужно использовать прокси, чтобы зайти на рутор, достаточно воспользоваться нашим ресурсом. Все новые фильмы, игры, сериалы, книги и музыка за 2013 и 2014 годы через торрент бесплатно. Скачивайте фильмы в хорошем качестве, игры для пк, xbox, playstation без регистрации. У нас вы найдете новые Зарубежные сериалы и Русские сериалы 2013, 2014, 2015 годов. Оставайтесь с нами, качайте любимые фильмы, игры, сериалы, книги и музыку.