img image001 image001 image001 image001 image001 image001 image001 image001 image001 image001 image001 image001 image001 image001 image001

Planets Sun Sun Sun
Статистика раздачи
Автор: Снежана | Размер: 2.17 ГБ | Добавлен: 26 июл 2013
Раздают: 22    Качают: 8
Скачать торрент
Скачать торрент
Описание торрента

СообщениеДобавлено: 26 июл 2013 

#77

Информация о фильме
Название: Призраки Бездны: Титаник
Оригинальное название: IMAX - Ghosts of the Abyss
Год выхода: 2003
Жанр: Документальный
Режиссер: Джеймс Кэмерон
В ролях: Билл Пэкстон, Лори Джонстон, Дон Линч, Кен Маршалл, Чарлз Пеллегрино
О фильме:
Один из самых успешных режиссеров мира Джеймс Кэмерон рассказывает подлинную историю легендарного "Титаника" и немецкого линкора "Бисмарк", затонувшего во время Второй мировой войны. Подготовка к этим уникальным подводным съемкам велась долгих три года, за которые были собраны новейшие технологические ресурсы и составлена команда высококлассных профессионалов, в которую помимо съемочной группы вошли известные историки и океанологи. Экспедиция проходила на российском научно-исследовательском корабле "Академик Мстислав Келдыш". Результатом напряженной работы стал сенсационный фильм с увлекательными историческими комментариями и потрясающими подводными съемками, не имеющими аналогов в истории кино!



Страна: США, Earthship Productions, Walden Media, Walt Disney Pictures
Продолжительность: 01:31:16
Перевод: Профессиональный двухголосый
Субтитры: Русские, английские
Дата релиза: 13.04.2012

Файл
Кодек: H.264
Качество: BDRip (AVC) (Blu-Ray (1080p))
Видео: MPEG-4 AVC, 2500 Кбит/с, 1024x576, 24.000 кадра/с
Звук: Русский, английский (AC3, 6 ch, 448 Кбит/с)

Общее
Уникальный идентификатор : 172419635339334211870098414836934789874 (0x81B6D059C960218E887EF74135D84AF2)
Полное имя : D:ФильмыPrizraki.bezdny.Titanik.2003.x264.BDRip.(AVC).ExKinoRay.mkv
Формат : Matroska
Версия формата : Version 2
Размер файла : 2,17 Гбайт
Продолжительность : 1 ч. 31 м.
Общий поток : 3398 Кбит/сек
Название фильма : Prizraki.bezdny.Titanik.2003.x264.BDRip.(AVC).ExKinoRay (Rip by Enigma-Vladislav71)
Дата кодирования : UTC 2012-04-13 12:44:14
Программа кодирования : mkvmerge v4.0.0 ('The Stars were mine') сборка от Jun 6 2010 16:18:42
Библиотека кодирования : libebml v1.0.0 + libmatroska v1.0.0

Видео
Идентификатор : 1
Формат : AVC
Формат/Информация : Advanced Video Codec
Профиль формата : High@L4.1
Параметр CABAC формата : Да
Параметр ReFrames формата : 8 кадров
Идентификатор кодека : V_MPEG4/ISO/AVC
Продолжительность : 1 ч. 31 м.
Битрейт : 2500 Кбит/сек
Ширина : 1024 пикселя
Высота : 576 пикселей
Соотношение сторон : 16:9
Частота кадров : 24,000 кадра/сек
Цветовое пространство : YUV
Субдискретизация насыщенности : 4:2:0
Битовая глубина : 8 бит
Тип развёртки : Прогрессивная
Бит/(Пиксели*Кадры) : 0.177
Размер потока : 1,55 Гбайт (72%)
Библиотека кодирования : x264 core 92 r1510 33d382a
Настройки программы : cabac=1 / ref=8 / deblock=1:-2:-2 / analyse=0x3:0x133 / me=umh / subme=10 / psy=1 / psy_rd=1.00:0.00 / mixed_ref=1 / me_range=48 / chroma_me=1 / trellis=2 / 8x8dct=1 / cqm=0 / deadzone=21,11 / fast_pskip=0 / chroma_qp_offset=-2 / threads=3 / sliced_threads=0 / nr=0 / decimate=1 / interlaced=0 / constrained_intra=0 / bframes=8 / b_pyramid=2 / b_adapt=2 / b_bias=0 / direct=3 / wpredb=1 / wpredp=2 / keyint=250 / keyint_min=23 / scenecut=40 / intra_refresh=0 / rc=2pass / mbtree=0 / bitrate=2500 / ratetol=1.0 / qcomp=0.60 / qpmin=10 / qpmax=51 / qpstep=4 / cplxblur=20.0 / qblur=0.5 / ip_ratio=1.40 / pb_ratio=1.30 / aq=1:1.00
Default : Да
Forced : Нет

Аудио #1
Идентификатор : 2
Формат : AC-3
Формат/Информация : Audio Coding 3
Расширение режима : CM (complete main)
Идентификатор кодека : A_AC3
Продолжительность : 1 ч. 31 м.
Вид битрейта : Постоянный
Битрейт : 448 Кбит/сек
Каналы : 6 каналов
Расположение каналов : Front: L C R, Side: L R, LFE
Частота : 48,0 КГц
Битовая глубина : 16 бит
Метод сжатия : С потерями
Размер потока : 292 Мбайт (13%)
Язык : Russian
Default : Да
Forced : Нет

Аудио #2
Идентификатор : 3
Формат : AC-3
Формат/Информация : Audio Coding 3
Расширение режима : CM (complete main)
Идентификатор кодека : A_AC3
Продолжительность : 1 ч. 31 м.
Вид битрейта : Постоянный
Битрейт : 448 Кбит/сек
Каналы : 6 каналов
Расположение каналов : Front: L C R, Side: L R, LFE
Частота : 48,0 КГц
Битовая глубина : 16 бит
Метод сжатия : С потерями
Размер потока : 292 Мбайт (13%)
Язык : English
Default : Нет
Forced : Нет

Текст #1
Идентификатор : 4
Формат : UTF-8
Идентификатор кодека : S_TEXT/UTF8
Идентификатор кодека/Информация : UTF-8 Plain Text
Язык : Russian
Default : Да
Forced : Нет

Текст #2
Идентификатор : 5
Формат : UTF-8
Идентификатор кодека : S_TEXT/UTF8
Идентификатор кодека/Информация : UTF-8 Plain Text
Язык : English
Default : Нет
Forced : Нет

Меню
00:00:00.000 : en:Chapter 01
00:11:42.208 : en:Chapter 02
00:23:40.208 : en:Chapter 03
00:34:16.958 : en:Chapter 04
00:47:24.250 : en:Chapter 05
00:59:48.583 : en:Chapter 06
01:10:06.541 : en:Chapter 07
01:21:05.000 : en:Chapter 08


Семпл


Релиз от:

Авторы релиза:



   Похожие торренты   Торрент   Размер 
В этой теме нет новых непрочитанных сообщений. Призраки бездны: Титаник / Ghosts of the Abyss (2003) BDRip 720p

30 | 12

3.76 ГБ

В этой теме нет новых непрочитанных сообщений. Призраки бездны: Титаник / Ghosts of the Abyss (2003) BDRip от HQCLUB

101 | 12

1.45 ГБ

В этой теме нет новых непрочитанных сообщений. Призраки бездны: Титаник / Ghosts of the Abyss (2003) BDRip 1080p

10 | 10

8.04 ГБ

В этой теме нет новых непрочитанных сообщений. Призраки бездны: Титаник / Ghosts of the Abyss (2003) BDRip 720p от HQ-ViDEO

21 | 8

4.37 ГБ

В этой теме нет новых непрочитанных сообщений. Призраки Бездны: Титаник / Ghosts of the Abyss (2003) BDRip 1080p | 3D-Video

116 | 7

7.62 ГБ

В этой теме нет новых непрочитанных сообщений. Призраки Бездны: Титаник / Ghosts of the Abyss (2003) HDTV 1080i

0 | 187

12.35 ГБ

В этой теме нет новых непрочитанных сообщений. Призраки Бездны: Титаник / Ghosts of the Abyss (2003) DVD5 от Youtracker

0 | 131

4.14 ГБ




Вы не можете начинать темы
Вы не можете отвечать на сообщения
Вы не можете редактировать свои сообщения
Вы не можете удалять свои сообщения
Вы не можете добавлять вложения

Перейти:  
Для Мосгорсуда, Роскомнадзора и рекламодателей: mosgorsud-torrent[собачка]yandex.ru
 Вход
ppkBB3cker v.2 © 2008-2014 @ PPK
[ Time : 0.038s | 15 Queries | GZIP : Off ]

Торрент трекер RUTOR.IN, Не можете зайти на rutor.org? Какой новый адрес рутор? Какое зеркало рутор? Не работает rutor.org и зеркала? Тогда наш торрент специально для вас. Rutor.in неофициальное зеркало rutor. В случае если у Вас заблокирован rutor или вдруг Вы не можете на него зайти, то Вы без труда сможете скачать бесплатно и без рекламы последние новинки кино, игр, сериалов и прочего у нас, на Rutor.in. Не нужно использовать прокси, чтобы зайти на рутор, достаточно воспользоваться нашим ресурсом. Все новые фильмы, игры, сериалы, книги и музыка за 2013 и 2014 годы через торрент бесплатно. Скачивайте фильмы в хорошем качестве, игры для пк, xbox, playstation без регистрации. У нас вы найдете новые Зарубежные сериалы и Русские сериалы 2013, 2014, 2015 годов. Оставайтесь с нами, качайте любимые фильмы, игры, сериалы, книги и музыку.
cron