img image001 image001 image001 image001 image001 image001 image001 image001 image001 image001 image001 image001 image001 image001 image001

Planets Sun Sun Sun
Статистика раздачи
Автор: Снежана | Размер: 371.18 МБ | Добавлен: 26 июл 2013
Раздают: 0    Качают: 1
Скачать торрент
Скачать торрент
Описание торрента

СообщениеДобавлено: 26 июл 2013 



Информация о фильме
Название: Крылья над Берлином
Год выхода: 2002
Жанр: Документальный
Режиссер: Наталья Сергеева
В ролях: А.Пятков, Л.Дуров, В.Решетников, И.Шевченко, А.Яковлев, В.Попков, А.Медведь, В.Койхель, П.Ланго

О фильме:
В августе 1941 года фашисты рвались к Москве, Смоленск уже пал, над Ленинградом нависла смертельная опасность, а Гитлер заявил, что Советский Союз войну уже практически проиграл. Именно тогда над Берлином появились первые советские бомбардировщики. Наши летчики осуществляли тогда немыслимые по риску и героизму вылеты. Но какова была цена этого героизма? Был ли смысл рисковать самолетами и летчиками-асами, многие из которых не вернулись из полетов? В учебниках истории эта операция упоминается одной строкой, ее порой не помнят даже те, кто пережил начало войны. Однако авторам фильма удалось найти тех, кто принимал участие в операции, – последних свидетелей, чьи рассказы бесценны. Трагическое лето 41-го года вспоминают: известный политик Александр Николаевич Яковлев, который в те годы был молодым бойцом; артист Лев Дуров, в то время подростк; летчик Виталий Попков – прототип знаменитого Маэстро из кинофильма «В бой идут одни старики». Так почему подробности уникальных героических полетов оставались неизвестны? Почему их участники, Герои Советского Союза, не популярны в народе так же, как Гастелло и Талалихин? И каков был военный, а не пропагандистский смысл бомбить Берлин летом сорок первого?

General
Complete name : Krilja.nad.Berlinom.2002.XviD.TVRip.avi
Format : AVI
Format/Info : Audio Video Interleave
File size : 371 MiB
Duration : 50mn 2s
Overall bit rate : 1 037 Kbps
Writing application : VirtualDubMod 1.5.10.2 (build 2542/release)
Writing library : VirtualDubMod build 2542/release
Video #0
ID : 0
Format : MPEG-4 Visual
Format profile : Advanced Simple@L5
Format settings, BVOP : 2
Format settings, QPel : No
Format settings, GMC : No warppoints
Format settings, Matrix : Default (H.263)
Muxing mode : Packed bitstream
Codec ID : XVID
Codec ID/Hint : XviD
Duration : 50mn 2s
Bit rate : 899 Kbps
Width : 720 pixels
Height : 540 pixels
Display aspect ratio : 4:3
Frame rate : 25.000 fps
Color space : YUV
Chroma subsampling : 4:2:0
Bit depth : 8 bits
Scan type : Interlaced
Scan order : Bottom Field First
Compression mode : Lossy
Bits/(Pixel*Frame) : 0.093
Stream size : 322 MiB (87%)
Writing library : XviD 1.2.1 (UTC 2008-12-04)
Audio #1
ID : 1
Format : MPEG Audio
Format version : Version 1
Format profile : Layer 3
Codec ID : 55
Codec ID/Hint : MP3
Duration : 50mn 2s
Bit rate mode : Constant
Bit rate : 128 Kbps
Channel(s) : 2 channels
Sampling rate : 48.0 KHz
Compression mode : Lossy
Stream size : 45.8 MiB (12%)
Alignment : Aligned on interleaves
Interleave, duration : 40 ms (1.00 video frame)
Interleave, preload duration : 504 ms
Writing library : LAME3.96r
Encoding settings : -m s -V 4 -q 2 -lowpass 17.5 -b 128

Страна: Россия
Студия: Студия ОПП "Vista"
Продолжительность: 00:50:02
Язык: Русский

Файл
Кодек: XviD
Качество: TVRip
Видео: 720x540, 899 kbps, 25 fps
Звук: MP3, 128кб/с, 2 канала

Семпл

, , , ,



   Похожие торренты   Торрент   Размер 
В этой теме нет новых непрочитанных сообщений. Небо над Берлином / Крылья желания / Der Himmel über Berlin / Wings of Desire (1987) BDRip от HQ-ViDEO | P2

51 | 5

2.18 ГБ

В этой теме нет новых непрочитанных сообщений. Самолёты - Крылья Отчизны 2 (Сборник) (1969 - 2011) DVDRip, SATRip, VHSRip, TVRip

139 | 22

38.86 ГБ

В этой теме нет новых непрочитанных сообщений. Самолёты - Крылья Отчизны (Сборник) (1943 - 2007) DVDRip, SATRip, VHSRip, TVRip

13 | 4

37.28 ГБ

В этой теме нет новых непрочитанных сообщений. Баскетбол. НБА. Зведный Уик-энд 2002 / NBA. All-Star Weekend 2002 (2002) TVRip

0 | 24

11.75 ГБ

В этой теме нет новых непрочитанных сообщений. Птицы: Крылья природы / Les ailes de la nature (2002) DVDRip от New-Team

46 | 11

1.46 ГБ

В этой теме нет новых непрочитанных сообщений. Птицы: Крылья природы / Les ailes de la nature (2002) DVDRip-AVC от New-Team

17 | 8

2.18 ГБ

В этой теме нет новых непрочитанных сообщений. Птицы: Крылья природы / Les ailes de la nature (2002) DVDRip от New-Team

20 | 11

2.18 ГБ




Вы не можете начинать темы
Вы не можете отвечать на сообщения
Вы не можете редактировать свои сообщения
Вы не можете удалять свои сообщения
Вы не можете добавлять вложения

Перейти:  
Для Мосгорсуда, Роскомнадзора и рекламодателей: mosgorsud-torrent[собачка]yandex.ru
 Вход
ppkBB3cker v.2 © 2008-2014 @ PPK
[ Time : 0.047s | 15 Queries | GZIP : Off ]

cron