img image001 image001 image001 image001 image001 image001 image001 image001 image001 image001 image001 image001 image001 image001 image001

Planets Sun Sun Sun
Статистика раздачи
Автор: Снежана | Размер: 496.06 МБ | Добавлен: 26 июл 2013
Раздают: 70    Качают: 1
Скачать торрент
Скачать торрент
Описание торрента

СообщениеДобавлено: 26 июл 2013 



Информация о фильме
Название: Тайны века. Подвиг по приговору
Год выхода: 2005
Жанр: Документальный
Режиссер: Фуад Шабанов
В ролях: Н.Чернов, А.Пыльцын, В.Кантовский, Д.Дебольский, В.Ульянов, Х.Бендекат, Н.Хаасе

О фильме:
Документальный фильм «Подвиг по приговору» рассказывает об истории штрафников времен Великой Отечественной войны. Причем телевизионщики рассказали не только о штрафных батальонах и ротах, воевавших в Красной Армии, но и о немецких штрафниках, так называемых "тенях вермахта". Немецкие штрафные подразделения, к концу войны по своей численности доходившие до дивизии, кстати, появились в немецкой армии на два года раньше, чем в нашей. В фильме было предоставлено слово нескольким советским ветеранам. Некоторые из них сами были штрафниками, среди участников фильма был и ветеран, в годы войны командовавший штрафной ротой. В фильм также вошел рассказ немца, прошедшего войну в составе немецких штрафных подразделений. В «Подвиге по приговору» нам рассказывают очевидцы — и их рассказ подкрепляется документами — о том, что командирами штрафников назначались боевые, как правило, опытные, проверенные офицеры, ничем не запятнавшие свою офицерскую репутацию и честь, т.е. не было ситуации, что штрафниками командовали штрафники. Участники войны, бывшие штрафники рассказывают и о том, что штрафные батальоны формировались из провинившихся офицеров, а штрафные роты из солдат и сержантов, и если в самом начале их формирования они и пополнялись за счет заключенных, то этих заключенных, кандидатов в штрафники, начальники лагерей отбирали строго.

General
Complete name : Podvig.po.prigiviru.2005.DivX.TVRip.avi
Format : AVI
Format/Info : Audio Video Interleave
File size : 496 MiB
Duration : 51mn 52s
Overall bit rate : 1 337 Kbps
Writing application : VirtualDubMod 1.5.10.1 (build 2366/release)
Writing library : VirtualDubMod build 2366/release
Video #0
ID : 0
Format : MPEG-4 Visual
Format settings, BVOP : 1
Format settings, QPel : No
Format settings, GMC : No warppoints
Format settings, Matrix : Default (H.263)
Muxing mode : Packed bitstream
Codec ID : DX50
Codec ID/Hint : DivX 5
Duration : 51mn 52s
Bit rate : 1 199 Kbps
Width : 640 pixels
Height : 480 pixels
Display aspect ratio : 4:3
Frame rate : 25.000 fps
Color space : YUV
Chroma subsampling : 4:2:0
Bit depth : 8 bits
Scan type : Progressive
Compression mode : Lossy
Bits/(Pixel*Frame) : 0.156
Stream size : 445 MiB (90%)
Writing library : DivX 6.0.0 (UTC 2005-06-15)
Audio #1
ID : 1
Format : MPEG Audio
Format version : Version 1
Format profile : Layer 3
Mode : Joint stereo
Mode extension : MS Stereo
Codec ID : 55
Codec ID/Hint : MP3
Duration : 51mn 52s
Bit rate mode : Constant
Bit rate : 128 Kbps
Channel(s) : 2 channels
Sampling rate : 44.1 KHz
Compression mode : Lossy
Stream size : 47.5 MiB (10%)
Alignment : Split accross interleaves
Interleave, duration : 40 ms (1.00 video frame)
Interleave, preload duration : 500 ms


Страна: Россия
Студия: Телекомпания Останкино
Продолжительность: 00:51:52
Язык: Русский

Файл
Кодек: DivX
Качество: TVRip
Видео: 640x480, 1199 kbps, 25 fps
Звук: MP3, 128кб/с, 2 канала

Семпл

, , , , ,



   Похожие торренты   Торрент   Размер 
В этой теме нет новых непрочитанных сообщений. Тайны века: Николай Гастелло. Кто совершил великий подвиг? (2005) TVRip

121 | 25

651.22 МБ

В этой теме нет новых непрочитанных сообщений. Тайны века. Обреченные на подвиг (2004) DVDRip от Pshichko66

55 | 5

501.09 МБ

В этой теме нет новых непрочитанных сообщений. Тайны Века: Обратная сторона Луны. Фальсификация полета американцев (2004) TVRip от tenow

3 | 3

350.33 МБ

В этой теме нет новых непрочитанных сообщений. Тайны века. Генрих Ягода.Падение маршала Лубянки (2005) SATRip

6 | 3

594.75 МБ

В этой теме нет новых непрочитанных сообщений. Эрнст Мулдашев. Тайны века. Живая мертвая вода (2005) DVDRip

21 | 5

350.45 МБ

В этой теме нет новых непрочитанных сообщений. Тайны века. Вольф Мессинг: я вижу мысли людей (2005) DVDRip от brazolargo

15 | 3

291.88 МБ

В этой теме нет новых непрочитанных сообщений. Тайны линкора Ямато / Secrets of the Battleship Yamato (2005) TVRip

38 | 52

301.78 МБ




Вы не можете начинать темы
Вы не можете отвечать на сообщения
Вы не можете редактировать свои сообщения
Вы не можете удалять свои сообщения
Вы не можете добавлять вложения

Перейти:  
Для Мосгорсуда, Роскомнадзора и рекламодателей: mosgorsud-torrent[собачка]yandex.ru
 Вход
ppkBB3cker v.2 © 2008-2014 @ PPK
[ Time : 0.041s | 14 Queries | GZIP : Off ]

Торрент трекер RUTOR.IN, Не можете зайти на rutor.org? Какой новый адрес рутор? Какое зеркало рутор? Не работает rutor.org и зеркала? Тогда наш торрент специально для вас. Rutor.in неофициальное зеркало rutor. В случае если у Вас заблокирован rutor или вдруг Вы не можете на него зайти, то Вы без труда сможете скачать бесплатно и без рекламы последние новинки кино, игр, сериалов и прочего у нас, на Rutor.in. Не нужно использовать прокси, чтобы зайти на рутор, достаточно воспользоваться нашим ресурсом. Все новые фильмы, игры, сериалы, книги и музыка за 2013 и 2014 годы через торрент бесплатно. Скачивайте фильмы в хорошем качестве, игры для пк, xbox, playstation без регистрации. У нас вы найдете новые Зарубежные сериалы и Русские сериалы 2013, 2014, 2015 годов. Оставайтесь с нами, качайте любимые фильмы, игры, сериалы, книги и музыку.