img image001 image001 image001 image001 image001 image001 image001 image001 image001 image001 image001 image001 image001 image001 image001

Planets Sun Sun Sun
Статистика раздачи
Автор: Снежана | Размер: 394.65 МБ | Добавлен: 26 июл 2013
Раздают: 31    Качают: 6
Скачать торрент
Скачать торрент
Описание торрента

СообщениеДобавлено: 26 июл 2013 

#77

Информация о фильме
Название: Арктический Круг
Оригинальное название: Arctic Circle
Ведущий Bеar Grylls
Год выхода: 2009
Жанр: документальный
Выпущено: Discovery
Перевод: закадровый (профессиональный одноголосый)

Северный Полярный Круг - льды, снег и замерзшие океаны, охватывающие 15 миллионов километров вокруг Серверного Полюса Земли. Температура здесь -50 градусов цельсия .
Беар Гриллс - эксперт, по выживанию, бывший спецназовец S.A.S., покажет и расскажет, как выжить в этой дикой глуши !

Видео: AVC, 720x576@1024х576 Anamorphic, 16:9, 25 fps, 1200 kbps, 0.116 bit/pixel
Аудио: AAC (LC), 32 kHz, 1 ch, 56 kbps

Format : MPEG-4
Format profile : Base Media
Codec ID : isom
File size : 395 MiB
Duration : 43mn 53s
Overall bit rate mode : Variable
Overall bit rate : 1 257 Kbps
Encoded date : UTC 2012-04-22 16:54:55
Tagged date : UTC 2012-04-22 16:54:55
Writing application : My MP4Box GUI 0.5.5.4

Video
ID : 1
Format : AVC
Format/Info : Advanced Video Codec
Format profile : High@L3.1
Format settings, CABAC : Yes
Format settings, ReFrames : 8 frames
Codec ID : avc1
Codec ID/Info : Advanced Video Coding
Duration : 43mn 53s
Bit rate : 1 198 Kbps
Maximum bit rate : 4 577 Kbps
Width : 720 pixels
Height : 576 pixels
Display aspect ratio : 16:9
Frame rate mode : Constant
Frame rate : 25.000 fps
Standard : PAL
Color space : YUV
Chroma subsampling : 4:2:0
Bit depth : 8 bits
Scan type : Progressive
Bits/(Pixel*Frame) : 0.116
Stream size : 376 MiB (95%)
Title : Imported with GPAC 0.4.6-DEV (internal rev. 5)
Writing library : x264 core 119 r2106 07efeb4
Encoding settings : cabac=1 / ref=8 / deblock=1:0:0 / analyse=0x3:0x133 / me=umh / subme=9 / psy=1 / psy_rd=1.00:0.00 / mixed_ref=1 / me_range=16 / chroma_me=1 / trellis=2 / 8x8dct=1 / cqm=0 / deadzone=21,11 / fast_pskip=1 / chroma_qp_offset=-2 / threads=6 / sliced_threads=0 / nr=0 / decimate=1 / interlaced=0 / bluray_compat=0 / constrained_intra=0 / bframes=3 / b_pyramid=2 / b_adapt=2 / b_bias=0 / direct=3 / weightb=1 / open_gop=0 / weightp=2 / keyint=250 / keyint_min=25 / scenecut=40 / intra_refresh=0 / rc_lookahead=60 / rc=2pass / mbtree=1 / bitrate=1198 / ratetol=1.0 / qcomp=0.60 / qpmin=0 / qpmax=69 / qpstep=4 / cplxblur=20.0 / qblur=0.5 / ip_ratio=1.40 / aq=1:1.00
Encoded date : UTC 2012-04-22 16:54:55
Tagged date : UTC 2012-04-22 16:55:04

Audio
ID : 2
Format : AAC
Format/Info : Advanced Audio Codec
Format profile : LC
Codec ID : 40
Duration : 43mn 53s
Bit rate mode : Variable
Bit rate : 56.0 Kbps
Maximum bit rate : 60.8 Kbps
Channel(s) : 1 channel
Channel positions : Front: C
Sampling rate : 32.0 KHz
Compression mode : Lossy
Stream size : 17.6 MiB (4%)
Encoded date : UTC 2012-04-22 16:55:03
Tagged date : UTC 2012-04-22 16:55:04


Скриншоты



   Похожие торренты   Торрент   Размер 
В этой теме нет новых непрочитанных сообщений. Discovery: Выжить любой ценой: Турция / Ultimate Survival: Turkey (2009) SATRip-AVC

44 | 5

381.23 МБ

В этой теме нет новых непрочитанных сообщений. Discovery: Выжить любой ценой: Аляска / Ultimate Survival: Alaska (2009) SATRip-AVC

49 | 12

390.87 МБ

В этой теме нет новых непрочитанных сообщений. Discovery: Выжить любой ценой: Белиз / Ultimate Survival: Belize (2009) SATRip-AVC

32 | 4

390.24 МБ

В этой теме нет новых непрочитанных сообщений. Discovery: Выжить любой ценой: Алабама / Ultimate Survival: Alabama (2009) SATRip-AVC

30 | 3

391.83 МБ

В этой теме нет новых непрочитанных сообщений. Discovery: Выжить любой ценой: Орегон / Ultimate Survival: Oregon (2009) SATRip-AVC

16 | 5

391.83 МБ

В этой теме нет новых непрочитанных сообщений. Discovery: Выжить любой ценой: Вьетнам / Ultimate Survival: Vietnam (2009) SATRip-AVC

43 | 7

390.92 МБ

В этой теме нет новых непрочитанных сообщений. Discovery: Выжить любой ценой: Техас / Ultimate Survival: Texas Desert (2009) SATRip-AVC

40 | 3

389.75 МБ




Вы не можете начинать темы
Вы не можете отвечать на сообщения
Вы не можете редактировать свои сообщения
Вы не можете удалять свои сообщения
Вы не можете добавлять вложения

Перейти:  
Для Мосгорсуда, Роскомнадзора и рекламодателей: mosgorsud-torrent[собачка]yandex.ru
 Вход
ppkBB3cker v.2 © 2008-2014 @ PPK
[ Time : 0.027s | 15 Queries | GZIP : Off ]

Торрент трекер RUTOR.IN, Не можете зайти на rutor.org? Какой новый адрес рутор? Какое зеркало рутор? Не работает rutor.org и зеркала? Тогда наш торрент специально для вас. Rutor.in неофициальное зеркало rutor. В случае если у Вас заблокирован rutor или вдруг Вы не можете на него зайти, то Вы без труда сможете скачать бесплатно и без рекламы последние новинки кино, игр, сериалов и прочего у нас, на Rutor.in. Не нужно использовать прокси, чтобы зайти на рутор, достаточно воспользоваться нашим ресурсом. Все новые фильмы, игры, сериалы, книги и музыка за 2013 и 2014 годы через торрент бесплатно. Скачивайте фильмы в хорошем качестве, игры для пк, xbox, playstation без регистрации. У нас вы найдете новые Зарубежные сериалы и Русские сериалы 2013, 2014, 2015 годов. Оставайтесь с нами, качайте любимые фильмы, игры, сериалы, книги и музыку.
cron