img image001 image001 image001 image001 image001 image001 image001 image001 image001 image001 image001 image001 image001 image001 image001

Planets Sun Sun Sun
Статистика раздачи
Автор: Снежана | Размер: 561.02 МБ | Добавлен: 26 июл 2013
Раздают: 25    Качают: 5
Скачать торрент
Скачать торрент
Описание торрента

СообщениеДобавлено: 26 июл 2013 



Информация о фильме
Название: Блокада. Тайны НКВД
Год выхода: 2010
Жанр: Документальный
Режиссер: Игорь Безруков
Ведущий: Сергей Шнуров
В ролях: Г.Юркин, Н.Ломагин, А.Пенкин, Г.Короткевич, А.Стародубцев, Н.Москаленко, В.Яковлев, Ю.Басистов, О.Смирнова

О фильме:
Битва за Ленинград шла не только на линии фронта. Был еще один, невидимый для многих фронт. Немецкие и советские спецслужбы почти три года вели свою, тайную войну за Ленинград. О героях этой войны молчали историки, их имена хранили архивы госбезопасности. Но приходит время открывать тайны. Новый документальный фильм Пятого канала - неизвестные материалы о тайных операциях в период ленинградской Блокады, первый объективный рассказ о вкладе спецслужб в победу города. Остановив войска у стен Ленинграда, германское командование сделало ставку на спецслужбы. Они должны были не только снабжать войска разведданными, но и довершить начатое вермахтом – принудить ленинградцев сдать город. Задача казалась не слишком сложной. Ленинград был на грани взрыва – страшный голод, панические настроения, недовольство коммунистической властью, масштабные хищения продуктов. Однако органам госбезопасности удалось не только удержать порядок в городе, но и наносить болезненные удары за пределами блокадного кольца. Советские диверсанты и партизаны развернули настоящую войну в тылу врага. В почти трехлетнем противостоянии победа осталась за ленинградскими бойцами невидимого фронта. Фильм создан в сотрудничестве с Управлением ФСБ по Санкт-Петербургу и Ленинградской области. Использованы уникальные ранее засекреченные документы и материалы из Архива Управления. Особый интерес представляют донесения германской разведки о положении в Ленинграде и планах немецкого командования.

General
Complete name : Blokada.Tajny.NKVD.2010.XviD.SATRip.avi
Format : AVI
Format/Info : Audio Video Interleave
File size : 561 MiB
Duration : 47mn 55s
Overall bit rate : 1 636 Kbps
Writing library : VirtualDub build 32842/release
Video #0
ID : 0
Format : MPEG-4 Visual
Format profile : Advanced Simple@L5
Format settings, BVOP : 2
Format settings, QPel : No
Format settings, GMC : No warppoints
Format settings, Matrix : Default (H.263)
Muxing mode : Packed bitstream
Codec ID : XVID
Codec ID/Hint : XviD
Duration : 47mn 55s
Bit rate : 1 499 Kbps
Width : 704 pixels
Height : 400 pixels
Display aspect ratio : 16:9
Frame rate : 25.000 fps
Color space : YUV
Chroma subsampling : 4:2:0
Bit depth : 8 bits
Scan type : Progressive
Compression mode : Lossy
Bits/(Pixel*Frame) : 0.213
Stream size : 514 MiB (92%)
Writing library : XviD 1.2.1 (UTC 2008-12-04)
Audio #1
ID : 1
Format : MPEG Audio
Format version : Version 1
Format profile : Layer 3
Mode : Joint stereo
Mode extension : MS Stereo
Codec ID : 55
Codec ID/Hint : MP3
Duration : 47mn 55s
Bit rate mode : Constant
Bit rate : 128 Kbps
Channel(s) : 2 channels
Sampling rate : 48.0 KHz
Compression mode : Lossy
Stream size : 43.9 MiB (8%)
Alignment : Split accross interleaves
Interleave, duration : 40 ms (1.00 video frame)
Interleave, preload duration : 500 ms

Страна: Россия
Студия: Студия "Пять Докфильм"
Продолжительность: 00:47:55
Язык: Русский

Файл
Кодек: Xvid
Качество: TVRip
Видео: 704x400, 1499 kbps, 25 fps
Звук: MP3, 128кб/с, 2 канала

Семпл

, , , , ,


Релиз от:



   Похожие торренты   Торрент   Размер 
В этой теме нет новых непрочитанных сообщений. Грейгъ О. - От НКВД до Аненэрбе, или магия печатей Звезды и Свастики (2010) PDF

5 | 2

19.95 МБ

В этой теме нет новых непрочитанных сообщений. Кирилл Бенедиктов - Блокада-2. Тень Зигфрида [Этногенез. 8-я книга] (2010) MP3

14 | 3

535.44 МБ

В этой теме нет новых непрочитанных сообщений. Тайны Апокалипсиса (2007) TVRip

20 | 5

4.76 ГБ

В этой теме нет новых непрочитанных сообщений. Тайны смерти (2009) TVRip

19 | 5

701.21 МБ

В этой теме нет новых непрочитанных сообщений. Тайны русского оружия [1-13,15-22 из 22] (2002) TVRip

5 | 1

5.02 ГБ

В этой теме нет новых непрочитанных сообщений. Петербургские тайны (1994) TVRip, SATRip

84 | 39

41.53 ГБ

В этой теме нет новых непрочитанных сообщений. Тайны века. Подвиг по приговору (2005) TVRip

70 | 1

496.06 МБ




Вы не можете начинать темы
Вы не можете отвечать на сообщения
Вы не можете редактировать свои сообщения
Вы не можете удалять свои сообщения
Вы не можете добавлять вложения

Перейти:  
Для Мосгорсуда, Роскомнадзора и рекламодателей: mosgorsud-torrent[собачка]yandex.ru
 Вход
ppkBB3cker v.2 © 2008-2014 @ PPK
[ Time : 0.023s | 14 Queries | GZIP : Off ]

Торрент трекер RUTOR.IN, Не можете зайти на rutor.org? Какой новый адрес рутор? Какое зеркало рутор? Не работает rutor.org и зеркала? Тогда наш торрент специально для вас. Rutor.in неофициальное зеркало rutor. В случае если у Вас заблокирован rutor или вдруг Вы не можете на него зайти, то Вы без труда сможете скачать бесплатно и без рекламы последние новинки кино, игр, сериалов и прочего у нас, на Rutor.in. Не нужно использовать прокси, чтобы зайти на рутор, достаточно воспользоваться нашим ресурсом. Все новые фильмы, игры, сериалы, книги и музыка за 2013 и 2014 годы через торрент бесплатно. Скачивайте фильмы в хорошем качестве, игры для пк, xbox, playstation без регистрации. У нас вы найдете новые Зарубежные сериалы и Русские сериалы 2013, 2014, 2015 годов. Оставайтесь с нами, качайте любимые фильмы, игры, сериалы, книги и музыку.