img image001 image001 image001 image001 image001 image001 image001 image001 image001 image001 image001 image001 image001 image001 image001

Planets Sun Sun Sun
Статистика раздачи
Автор: Снежана | Размер: 1.98 ГБ | Добавлен: 26 июл 2013
Раздают: 2    Качают: 2
Скачать торрент
Скачать торрент
Описание торрента

СообщениеДобавлено: 26 июл 2013 



Информация о фильме

Название: продавец дождя
Год выхода: 1975
Жанр: телеспектакль
Режиссер: В. Храмов, Л. Варпаховский
В ролях: Борис Лифанов, Д. Гаврилов, Василий Бочкарев, Людмила Полякова, Сергей Ляхницкий, Эммануил Виторган, Владимир Анисько

О фильме:
По одноименной пьесе Ричарда Нэша.
Бил Старбак возрождает в людях утраченные надежды. Он приходит к ним в пору засухи и продает дождь,то есть обещание вызвать дождь. Он ставит одно условие - надо верить в чудо. Бил заставляет Лиззи, дочь фермера, поверить в то, что она достойна любви. Дождь действительно пошел, а любимый мужчина Лиззи ответил ей взаимностью.

Страна: СССР
Продолжительность: 02:30 - 2 серии

Файл
Кодек: AVC
Качество: TV rip
Видео: MPEG-TS, 720 : 576, 4:3 Bit rate : 1 600 Kbps, 25.000 fps
Звук: MPEG Audio Bit rate : 192 Kbps, 2 channels, 48.0 KHz

продавец дождя.mpg
Format : MPEG-TS
File size : 1.98 GiB
Duration : 2h 30mn
Overall bit rate : 1 887 Kbps

Video
ID : 301 (0x12D)
Menu ID : 1 (0x1)
Format : AVC
Format/Info : Advanced Video Codec
Format profile : Main@L3.0
Format settings, CABAC : Yes
Format settings, ReFrames : 3 frames
Format settings, GOP : M=4, N=24
Codec ID : 27
Duration : 2h 30mn
Bit rate : 1 600 Kbps
Width : 720 pixels
Height : 576 pixels
Display aspect ratio : 4:3
Frame rate : 25.000 fps
Standard : Component
Color space : YUV
Chroma subsampling : 4:2:0
Bit depth : 8 bits
Scan type : Progressive
Bits/(Pixel*Frame) : 0.154
Stream size : 1.68 GiB (85%)
Color primaries : BT.470-6 System B, BT.470-6 System G, BT.601-6 625, BT.1358 625, BT.1700 625 PAL, BT.1700 625 SECAM
Transfer characteristics : BT.470-6 System B, BT.470-6 System G
Matrix coefficients : BT.470-6 System B, BT.470-6 System G, BT.601-6 625, BT.1358 625, BT.1700 625 PAL, BT.1700 625 SECAM, IEC 61966-2-4 601

Audio
ID : 302 (0x12E)
Menu ID : 1 (0x1)
Format : MPEG Audio
Format version : Version 1
Format profile : Layer 2
Codec ID : 3
Duration : 2h 30mn
Bit rate mode : Constant
Bit rate : 192 Kbps
Channel(s) : 2 channels
Sampling rate : 48.0 KHz
Compression mode : Lossy
Stream size : 206 MiB (10%)



   Похожие торренты   Торрент   Размер 
В этой теме нет новых непрочитанных сообщений. Телеспектакль - Сирано де Бержерак (1983) TVRip

484 | 3

1.36 ГБ

В этой теме нет новых непрочитанных сообщений. Сорокина. Спецэфир к 5-летию «Дождя» [28.04] (2015) TVRip

46 | 7

480.62 МБ

В этой теме нет новых непрочитанных сообщений. В ожидании дождя / Cekání na dést (1978) TVRip | L1

89 | 5

1.32 ГБ

В этой теме нет новых непрочитанных сообщений. Время назад! Новогодний эфир Дождя [31.12] (2014) TVRip

67 | 24

8.23 ГБ

В этой теме нет новых непрочитанных сообщений. Боцман (1975) TVRip

4 | 3

200.09 МБ

В этой теме нет новых непрочитанных сообщений. Обретёшь в бою (1975) TVRip

7 | 4

4.59 ГБ

В этой теме нет новых непрочитанных сообщений. Ежик в тумане (1975) TVRip

49 | 6

150.38 МБ




Вы не можете начинать темы
Вы не можете отвечать на сообщения
Вы не можете редактировать свои сообщения
Вы не можете удалять свои сообщения
Вы не можете добавлять вложения

Перейти:  
Для Мосгорсуда, Роскомнадзора и рекламодателей: mosgorsud-torrent[собачка]yandex.ru
 Вход
ppkBB3cker v.2 © 2008-2014 @ PPK
[ Time : 0.029s | 16 Queries | GZIP : Off ]

Торрент трекер RUTOR.IN, Не можете зайти на rutor.org? Какой новый адрес рутор? Какое зеркало рутор? Не работает rutor.org и зеркала? Тогда наш торрент специально для вас. Rutor.in неофициальное зеркало rutor. В случае если у Вас заблокирован rutor или вдруг Вы не можете на него зайти, то Вы без труда сможете скачать бесплатно и без рекламы последние новинки кино, игр, сериалов и прочего у нас, на Rutor.in. Не нужно использовать прокси, чтобы зайти на рутор, достаточно воспользоваться нашим ресурсом. Все новые фильмы, игры, сериалы, книги и музыка за 2013 и 2014 годы через торрент бесплатно. Скачивайте фильмы в хорошем качестве, игры для пк, xbox, playstation без регистрации. У нас вы найдете новые Зарубежные сериалы и Русские сериалы 2013, 2014, 2015 годов. Оставайтесь с нами, качайте любимые фильмы, игры, сериалы, книги и музыку.