img image001 image001 image001 image001 image001 image001 image001 image001 image001 image001 image001 image001 image001 image001 image001

Planets Sun Sun Sun
Статистика раздачи
Автор: Снежана | Размер: 5.59 ГБ | Добавлен: 26 июл 2013
Раздают: 8    Качают: 5
Скачать торрент
Скачать торрент
Описание торрента

СообщениеДобавлено: 26 июл 2013 

#77

Информация о фильме
Название: BluScenes: Величественные Водопады
Оригинальное название: BluScenes: Majestic Waterfalls
Год выхода: 2010
Жанр: Документальный, видовой, релакс
Режиссер: Джейсон Розенфельд / Jason Rosenfeld

О фильме: Насладитесь естественной красотой и звуками самых величественных бурлящих водопадов и журчащих ручьев. Красота природы поднимет вам настроение и улучшит самочувствие. Высочайшее качество видео и звука поможет на сто процентов погрузиться в красоту природы.
Страна: США
Выпущено: Scenic Labs
Продолжительность: 01:04:33
Перевод: Не требуется

Файл
Качество: BDRip 720p
Формат: MKV
Видео кодек: H.264
Аудио кодек: DTS, AC3
Видео: AVC, 1280x720 (16/9), 23.976 fps, 10 000 Kbps (0.441 bit/pixel)
Аудио #1: DTS, 48.0 KHz, 6 ch, 1 510 Kbps, CBR [звуки природы, музыка]
Аудио #2: AC-3, 48.0 KHz, 6 ch, 448 Kbps, CBR [музыка]
Аудио #3: AC-3, 48.0 KHz, 2 ch, 448 Kbps, CBR [звуки природы]

General
Format : Matroska
File size : 5.59 GiB
Duration : 1h 4mn
Overall bit rate : 12.4 Mbps
Movie name : Gravitator
Encoded date : UTC 2012-04-24 10:09:16
Writing application : mkvmerge v4.8.0 ('I Got The...') сборка от May 24 2011 03:12:58
Writing library : libebml v1.2.0 + libmatroska v1.1.0

Video
ID : 1
Format : AVC
Format/Info : Advanced Video Codec
Format profile : High@L4.1
Format settings, CABAC : Yes
Format settings, ReFrames : 9 frames
Codec ID : V_MPEG4/ISO/AVC
Duration : 1h 4mn
Bit rate : 10 000 Kbps
Width : 1 280 pixels
Height : 720 pixels
Display aspect ratio : 16:9
Frame rate : 23.976 fps
Color space : YUV
Chroma subsampling : 4:2:0
Bit depth : 8 bits
Scan type : Progressive
Bits/(Pixel*Frame) : 0.453
Stream size : 4.40 GiB (79%)
Writing library : x264 core 116 r2074 2641b9e
Encoding settings : cabac=1 / ref=9 / deblock=1:-3:-2 / analyse=0x3:0x133 / me=umh / subme=10 / psy=1 / psy_rd=1.00:0.15 / mixed_ref=1 / me_range=32 / chroma_me=1 / trellis=2 / 8x8dct=1 / cqm=0 / deadzone=21,11 / fast_pskip=1 / chroma_qp_offset=-3 / threads=6 / sliced_threads=0 / nr=0 / decimate=1 / interlaced=0 / bluray_compat=0 / constrained_intra=0 / bframes=8 / b_pyramid=2 / b_adapt=2 / b_bias=0 / direct=3 / weightb=1 / open_gop=0 / weightp=2 / keyint=250 / keyint_min=23 / scenecut=40 / intra_refresh=0 / rc_lookahead=60 / rc=2pass / mbtree=1 / bitrate=10000 / ratetol=1.0 / qcomp=0.60 / qpmin=10 / qpmax=51 / qpstep=4 / cplxblur=20.0 / qblur=0.5 / ip_ratio=1.40 / aq=1:1.00
Language : English

Audio #1
ID : 2
Format : DTS
Format/Info : Digital Theater Systems
Codec ID : A_DTS
Duration : 1h 4mn
Bit rate mode : Constant
Bit rate : 1 510 Kbps
Channel(s) : 6 channels
Channel positions : Front: L C R, Side: L R, LFE
Sampling rate : 48.0 KHz
Bit depth : 24 bits
Stream size : 697 MiB (12%)
Title : Природа и музыка
Language : English

Audio #2
ID : 3
Format : AC-3
Format/Info : Audio Coding 3
Mode extension : CM (complete main)
Codec ID : A_AC3
Duration : 1h 4mn
Bit rate mode : Constant
Bit rate : 448 Kbps
Channel(s) : 6 channels
Channel positions : Front: L C R, Side: L R, LFE
Sampling rate : 48.0 KHz
Bit depth : 16 bits
Stream size : 207 MiB (4%)
Title : Музыка
Language : English

Audio #3
ID : 4
Format : AC-3
Format/Info : Audio Coding 3
Mode extension : CM (complete main)
Codec ID : A_AC3
Duration : 1h 4mn
Bit rate mode : Constant
Bit rate : 448 Kbps
Channel(s) : 2 channels
Channel positions : Front: L R
Sampling rate : 48.0 KHz
Bit depth : 16 bits
Stream size : 207 MiB (4%)
Title : Звуки природы
Language : English



Релиз от: Gravitator (Руслан19780)



   Похожие торренты   Торрент   Размер 
В этой теме нет новых непрочитанных сообщений. Величественные Водопады / BluScenes: Majestic Waterfalls (2010) Blu-ray

4 | 2

14.6 ГБ

В этой теме нет новых непрочитанных сообщений. Bluscenes: Звездное Путешествие / BluScenes: Journey Through Space (2009) BDRip 720p от ExKinoRay

2 | 1

1.1 ГБ

В этой теме нет новых непрочитанных сообщений. BluScenes: Аквариум с Коралловым Рифом / BluScenes: Coral Reef Aquarium (2009) BDRip 720p

5 | 2

3.13 ГБ

В этой теме нет новых непрочитанных сообщений. Bluscenes: Аквариум с Коралловым Рифом / BluScenes: Coral Reef Aquarium (2009) BDRip 720p

3 | 3

3.14 ГБ

В этой теме нет новых непрочитанных сообщений. BluScenes: Путешествия по космосу / BluScenes: Journey Through Space (2009) BDRip 1080p

5 | 3

1.78 ГБ

В этой теме нет новых непрочитанных сообщений. BluScenes: Цветущие сады / BluScenes: Flowering Gardens (2012) BDRip-AVC 1080p

6 | 1

1.93 ГБ

В этой теме нет новых непрочитанных сообщений. BluScenes: Волны спокойствия / BluScenes: Waves of Tranquility (2012) BDRip-AVC

4 | 3

4.5 ГБ




Вы не можете начинать темы
Вы не можете отвечать на сообщения
Вы не можете редактировать свои сообщения
Вы не можете удалять свои сообщения
Вы не можете добавлять вложения

Перейти:  
Для Мосгорсуда, Роскомнадзора и рекламодателей: mosgorsud-torrent[собачка]yandex.ru
 Вход
ppkBB3cker v.2 © 2008-2014 @ PPK
[ Time : 0.033s | 14 Queries | GZIP : Off ]

Торрент трекер RUTOR.IN, Не можете зайти на rutor.org? Какой новый адрес рутор? Какое зеркало рутор? Не работает rutor.org и зеркала? Тогда наш торрент специально для вас. Rutor.in неофициальное зеркало rutor. В случае если у Вас заблокирован rutor или вдруг Вы не можете на него зайти, то Вы без труда сможете скачать бесплатно и без рекламы последние новинки кино, игр, сериалов и прочего у нас, на Rutor.in. Не нужно использовать прокси, чтобы зайти на рутор, достаточно воспользоваться нашим ресурсом. Все новые фильмы, игры, сериалы, книги и музыка за 2013 и 2014 годы через торрент бесплатно. Скачивайте фильмы в хорошем качестве, игры для пк, xbox, playstation без регистрации. У нас вы найдете новые Зарубежные сериалы и Русские сериалы 2013, 2014, 2015 годов. Оставайтесь с нами, качайте любимые фильмы, игры, сериалы, книги и музыку.