img image001 image001 image001 image001 image001 image001 image001 image001 image001 image001 image001 image001 image001 image001 image001

Planets Sun Sun Sun
Статистика раздачи
Автор: Снежана | Размер: 1.45 ГБ | Добавлен: 26 июл 2013
Раздают: 19    Качают: 4
Скачать торрент
Скачать торрент
Описание торрента

СообщениеДобавлено: 26 июл 2013 

#77

Информация о фильме
Название: Проснись и пой
Год выхода: 1974
Жанр: комедия, музыкальный, телеспектакль
Режиссер: Марк Захаров, Александр Ширвиндт
В ролях:
Нина Корниенко, Борис Кумаритов, Татьяна Пельтцер, Георгий Менглет, Нина Архипова,
Татьяна Егорова

О фильме:
Этот телеспектакль Московского театра Сатиры был поставлен в 1973 году по одноименной пьесе М. Дярфаша «Проснись и пой!» талантливым дуэтом режиссеров, которые раньше вместе никогда не работали Марком Захаровым и Александром Ширвиндтом, причем у Александра Ширвиндта это был безусловно успешный дебют. Будапешт. Дом семьи Орбок. Пожилая пара, Пишта и Эржи, живут привычным, устоявшимся бытом. Их сын Дьюла ищет себя, он устал от однообразной жизни дома, поучений родителей, он хочет свободы. Неожиданно в доме появляется молодая, обаятельная и веселая Каролла, которой суждено перевернуть жизнь семьи с ног на голову, заставить всех посмотреть на себя новыми глазами, и измениться. Каролла приносит в дом любовь и радость, Дьюла влюбляется в неё, а старый Пишта вновь влюбляется в собственную жену.
Страна: СССР
Студия: Гостелерадио
Продолжительность: 01:37
Файл
Кодек: AVC
Качество: DVDRip
Видео: MPEG-4; Bit rate 2 003 Kbps ; 720 : 576 ; 4:3
Звук: AAC; 128 Kbps; 2 channels Front: L R; 48.0 KHz


проснись и пой.mp4
Format : MPEG-4
Format profile : Sony PSP
Codec ID : MSNV
File size : 1.45 GiB
Duration : 1h 37mn
Overall bit rate mode : Variable
Overall bit rate : 2 134 Kbps
Encoded date : UTC 2012-05-03 12:58:16
Tagged date : UTC 2012-05-03 12:58:16

Video
ID : 1
Format : AVC
Format/Info : Advanced Video Codec
Format profile : Baseline@L3.0
Format settings, CABAC : No
Format settings, ReFrames : 1 frame
Format settings, GOP : M=1, N=29
Codec ID : avc1
Codec ID/Info : Advanced Video Coding
Duration : 1h 37mn
Bit rate mode : Variable
Bit rate : 2 003 Kbps
Maximum bit rate : 2 500 Kbps
Width : 720 pixels
Height : 576 pixels
Display aspect ratio : 4:3
Frame rate mode : Constant
Frame rate : 25.000 fps
Standard : PAL
Color space : YUV
Chroma subsampling : 4:2:0
Bit depth : 8 bits
Scan type : Progressive
Bits/(Pixel*Frame) : 0.193
Stream size : 1.36 GiB (94%)
Language : English
Encoded date : UTC 2012-05-03 12:58:16
Tagged date : UTC 2012-05-03 12:58:16

Audio
ID : 2
Format : AAC
Format/Info : Advanced Audio Codec
Format profile : LC
Codec ID : 40
Duration : 1h 37mn
Source duration : 1h 37mn
Bit rate mode : Constant
Bit rate : 128 Kbps
Channel(s) : 2 channels
Channel positions : Front: L R
Sampling rate : 48.0 KHz
Compression mode : Lossy
Stream size : 89.1 MiB (6%)
Source stream size : 89.1 MiB
Language : English
Encoded date : UTC 2012-05-03 12:58:17
Tagged date : UTC 2012-05-03 12:58:17



   Похожие торренты   Торрент   Размер 
В этой теме нет новых непрочитанных сообщений. Проснись, Сид / Wake Up Sid (2009) DVDRip

22 | 6

1.36 ГБ

В этой теме нет новых непрочитанных сообщений. Louna - Проснись и Пой [Live] (2013) DVDRip-AVC

21 | 8

2.17 ГБ

В этой теме нет новых непрочитанных сообщений. Предельно личные отношения: Песня любви 1974 года / Gokushiteki Erosu: Renka 1974 (1974) DVDRip | Sub

37 | 118

1.07 ГБ

В этой теме нет новых непрочитанных сообщений. Догматик Сан / S.W.D. - Проснись! (2011) МР3

16 | 103

192.85 МБ

В этой теме нет новых непрочитанных сообщений. Игорь Панков – Проснись в Атлантиде. Сон (2016) MP3

149 | 2

724.65 МБ

В этой теме нет новых непрочитанных сообщений. Телеспектакль - Тартюф (1989) SATRip

6 | 3

1.94 ГБ

В этой теме нет новых непрочитанных сообщений. Проснись и убей / Svegliati e uccidi (1966) BDRip от Koenig | P2

0 | 0

1.45 ГБ




Вы не можете начинать темы
Вы не можете отвечать на сообщения
Вы не можете редактировать свои сообщения
Вы не можете удалять свои сообщения
Вы не можете добавлять вложения

Перейти:  
Для Мосгорсуда, Роскомнадзора и рекламодателей: mosgorsud-torrent[собачка]yandex.ru
 Вход
ppkBB3cker v.2 © 2008-2014 @ PPK
[ Time : 0.038s | 14 Queries | GZIP : Off ]

Торрент трекер RUTOR.IN, Не можете зайти на rutor.org? Какой новый адрес рутор? Какое зеркало рутор? Не работает rutor.org и зеркала? Тогда наш торрент специально для вас. Rutor.in неофициальное зеркало rutor. В случае если у Вас заблокирован rutor или вдруг Вы не можете на него зайти, то Вы без труда сможете скачать бесплатно и без рекламы последние новинки кино, игр, сериалов и прочего у нас, на Rutor.in. Не нужно использовать прокси, чтобы зайти на рутор, достаточно воспользоваться нашим ресурсом. Все новые фильмы, игры, сериалы, книги и музыка за 2013 и 2014 годы через торрент бесплатно. Скачивайте фильмы в хорошем качестве, игры для пк, xbox, playstation без регистрации. У нас вы найдете новые Зарубежные сериалы и Русские сериалы 2013, 2014, 2015 годов. Оставайтесь с нами, качайте любимые фильмы, игры, сериалы, книги и музыку.