img image001 image001 image001 image001 image001 image001 image001 image001 image001 image001 image001 image001 image001 image001 image001

Planets Sun Sun Sun
Статистика раздачи
Автор: Снежана | Размер: 816.41 МБ | Добавлен: 26 июл 2013
Раздают: 0    Качают: 1
Скачать торрент
Скачать торрент
Описание торрента

СообщениеДобавлено: 26 июл 2013 



Информация о фильме
Название: "Думы"
Год выхода: 2012
Жанр: Спектакль, Театрально–музыкальная постановка
Режиссер телевизионной версии: Ирина Доценко
Исполняют: Народный артист России Валерий Золотухин и государственный академический русский народный ансамбль «Россия» имени Людмилы Зыкиной Художественный руководитель и главный дирижёр Дмитрий Дмитриенко. Автор идеи Елена Климова.

О фильме:
Инициатором и организатором спектакля стал Ансамбль «Россия» имени Людмилы Зыкиной, который на протяжении 35 лет в различных формах концертной практики пропагандирует отечественную культуру. И в этот раз Ансамбль предлагает зрителю оригинальное сочетание музыкальной и театральной сфер искусства. Не случайно и то, что этот рассказ услышат из уст известного актера Валерия Золотухина. Являясь земляком Шукшина и автором большого количества рассказов о своей малой родине, он, как никто другой, оказался способен максимально точно передать всю палитру красок, эмоций, чувств, переживаний, вложенных автором в произведение.
Музыкальная часть действа состоит из произведений русских композиторов Георгия Свиридова,Валерия Гаврилина, а также из уникальных обработок русских народных песен, вошедших в репертуар ансамбля «Россия», выступления которого до сих пор пользуются большим успехом как у широкой слушательской аудитории, так и у профессионалов, ценителей народной музыки.

Официальный сайт

Страна: Россия
Студия: ООО "Альма Матер"
Продолжительность: 01:04

Файл
Кодек: AVC
Качество: TVRip
Видео: MPEG-TS; Bit rate :1 491 Kbps ; 720 : 576; 4:3 ; 25.000 fps
Звук: MPEG Audio;Bit rate 192 Kbps; 2 channels; 48.0 KHz



В_Золотухин.mpg
Format : MPEG-TS
File size : 816 MiB
Duration : 1h 4mn
Overall bit rate : 1 772 Kbps

Video
ID : 301 (0x12D)
Menu ID : 1 (0x1)
Format : AVC
Format/Info : Advanced Video Codec
Format profile : Main@L3.0
Format settings, CABAC : Yes
Format settings, ReFrames : 3 frames
Format settings, GOP : M=4, N=24
Codec ID : 27
Duration : 1h 4mn
Bit rate : 1 491 Kbps
Width : 720 pixels
Height : 576 pixels
Display aspect ratio : 4:3
Frame rate : 25.000 fps
Standard : Component
Color space : YUV
Chroma subsampling : 4:2:0
Bit depth : 8 bits
Scan type : Interlaced
Scan order : Top Field First
Bits/(Pixel*Frame) : 0.144
Stream size : 687 MiB (84%)
Color primaries : BT.470-6 System B, BT.470-6 System G, BT.601-6 625, BT.1358 625, BT.1700 625 PAL, BT.1700 625 SECAM
Transfer characteristics : BT.470-6 System B, BT.470-6 System G
Matrix coefficients : BT.470-6 System B, BT.470-6 System G, BT.601-6 625, BT.1358 625, BT.1700 625 PAL, BT.1700 625 SECAM, IEC 61966-2-4 601

Audio
ID : 302 (0x12E)
Menu ID : 1 (0x1)
Format : MPEG Audio
Format version : Version 1
Format profile : Layer 2
Codec ID : 3
Duration : 1h 4mn
Bit rate mode : Constant
Bit rate : 192 Kbps
Channel(s) : 2 channels
Sampling rate : 48.0 KHz
Compression mode : Lossy
Stream size : 88.4 MiB (11%)



   Похожие торренты   Торрент   Размер 
В этой теме нет новых непрочитанных сообщений. Спектакль. Былое и думы (1972) TVRip

0 | 17

8.02 ГБ

В этой теме нет новых непрочитанных сообщений. Снукер. China Open 2012. День третий [Eurosport] (2012) TVRip

0 | 2

2.43 ГБ

В этой теме нет новых непрочитанных сообщений. Отчёт Председателя Правительства РФ Путина В.В. в ГД 11 апреля 2012 года (2012) TVRip

0 | 1

1.21 ГБ

В этой теме нет новых непрочитанных сообщений. Футбол. Чемпионат Англии 2011-2012. 33-й тур. Фулхэм - Челси (2012) TVRip-AVC

0 | 1

908.4 МБ

В этой теме нет новых непрочитанных сообщений. Снукер. The Masters 2012. День пятый. 1/4 финала [Eurosport] (2012) TVRip

1 | 1

1.83 ГБ

В этой теме нет новых непрочитанных сообщений. Снукер. The Masters 2012. День седьмой. 1/2 финала [Eurosport] (2012) TVRip

0 | 2

2.48 ГБ

В этой теме нет новых непрочитанных сообщений. Пока все дома. У Семёна Альтова [эфир от 2012.06.17] (2012) TVRip от Files-x

0 | 4

500.37 МБ




Вы не можете начинать темы
Вы не можете отвечать на сообщения
Вы не можете редактировать свои сообщения
Вы не можете удалять свои сообщения
Вы не можете добавлять вложения

Перейти:  
Для Мосгорсуда, Роскомнадзора и рекламодателей: mosgorsud-torrent[собачка]yandex.ru
 Вход
ppkBB3cker v.2 © 2008-2014 @ PPK
[ Time : 7.444s | 15 Queries | GZIP : On ]

Торрент трекер RUTOR.IN, Не можете зайти на rutor.org? Какой новый адрес рутор? Какое зеркало рутор? Не работает rutor.org и зеркала? Тогда наш торрент специально для вас. Rutor.in неофициальное зеркало rutor. В случае если у Вас заблокирован rutor или вдруг Вы не можете на него зайти, то Вы без труда сможете скачать бесплатно и без рекламы последние новинки кино, игр, сериалов и прочего у нас, на Rutor.in. Не нужно использовать прокси, чтобы зайти на рутор, достаточно воспользоваться нашим ресурсом. Все новые фильмы, игры, сериалы, книги и музыка за 2013 и 2014 годы через торрент бесплатно. Скачивайте фильмы в хорошем качестве, игры для пк, xbox, playstation без регистрации. У нас вы найдете новые Зарубежные сериалы и Русские сериалы 2013, 2014, 2015 годов. Оставайтесь с нами, качайте любимые фильмы, игры, сериалы, книги и музыку.