img image001 image001 image001 image001 image001 image001 image001 image001 image001 image001 image001 image001 image001 image001 image001

Planets Sun Sun Sun
Статистика раздачи
Автор: Снежана | Размер: 1.96 ГБ | Добавлен: 26 июл 2013
Раздают: 7    Качают: 3
Скачать торрент
Скачать торрент
Описание торрента

СообщениеДобавлено: 26 июл 2013 



Информация о фильме
Название: Шут Балакирев
Оригинальное название: Шут Балакирев
Год выхода: 2002
Жанр: Спектакль, Трагикомедия, Телевизионная версия спектакля
Постановка: Марк Захаров
Автор: Григорий Горин
Режиссер: Юрий Махаев, Николай Скуйбин
В ролях: Сергей Фролов, Олег Янковский, Александра Захарова, Николай Караченцов, Александр Збруев, Юрий Колычев, Татьяна Кравченко, Александр Лазарев-мл., Олеся Железняк, Людмила Артемьева, Людмила Поргина, Игорь Фокин

О фильме:
Сюжетные коллизии трагикомедии основаны на событиях Петровской эпохи - времени великих преобразований и реформ в России, в центре которых - реальные исторические персонажи: Петр Первый, Екатерина, Меншиков. Придворный шут Иван Балакирев, участник поощряемых государем празднеств и шутовских потех, волей обстоятельств оказывается вовлеченным в непростые взаимоотношения в семье и при дворе императора.

Страна: Россия
Студия: Театр Ленком при участии киностудии "Агат"
Продолжительность: 02:41 - 2 части
Перевод: не требуется

Файл
Кодек: AVC
Качество: DVD-Rip AVC
Видео: MPEG-4, Bit rate : 1 601 Kbps, 720 : 576, 4:3, 25.000 fps
Звук: AAC, 128 Kbps, 2 channels Front: L R, 48.0 KHz
Субтитры: нет
шут_Балакирев.mp4
Format : MPEG-4
Format profile : Sony PSP
Codec ID : MSNV
File size : 1.96 GiB
Duration : 2h 41mn
Overall bit rate mode : Variable
Overall bit rate : 1 732 Kbps
Encoded date : UTC 2012-05-05 20:39:26
Tagged date : UTC 2012-05-05 20:39:26

Video
ID : 1
Format : AVC
Format/Info : Advanced Video Codec
Format profile : Baseline@L3.0
Format settings, CABAC : No
Format settings, ReFrames : 1 frame
Format settings, GOP : M=1, N=29
Codec ID : avc1
Codec ID/Info : Advanced Video Coding
Duration : 2h 41mn
Bit rate mode : Variable
Bit rate : 1 601 Kbps
Maximum bit rate : 2 100 Kbps
Width : 720 pixels
Height : 576 pixels
Display aspect ratio : 4:3
Frame rate mode : Constant
Frame rate : 25.000 fps
Standard : PAL
Color space : YUV
Chroma subsampling : 4:2:0
Bit depth : 8 bits
Scan type : Progressive
Bits/(Pixel*Frame) : 0.154
Stream size : 1.81 GiB (92%)
Language : English
Encoded date : UTC 2012-05-05 20:39:26
Tagged date : UTC 2012-05-05 20:39:26

Audio
ID : 2
Format : AAC
Format/Info : Advanced Audio Codec
Format profile : LC
Codec ID : 40
Duration : 2h 41mn
Source duration : 2h 41mn
Bit rate mode : Constant
Bit rate : 128 Kbps
Channel(s) : 2 channels
Channel positions : Front: L R
Sampling rate : 48.0 KHz
Compression mode : Lossy
Stream size : 148 MiB (7%)
Source stream size : 148 MiB
Language : English
Encoded date : UTC 2012-05-05 20:39:26
Tagged date : UTC 2012-05-05 20:39:26





   Похожие торренты   Торрент   Размер 
В этой теме нет новых непрочитанных сообщений. Балакирев Милий Алексеевич - Музыка (2008) MP3

0 | 4

60.86 МБ

В этой теме нет новых непрочитанных сообщений. Бои без правил. Лучшие моменты. 1993-2002 / Ultimate knockouts and submissions. 1993-2002 (2002) DVDRip

7 | 16

1.6 ГБ

В этой теме нет новых непрочитанных сообщений. Новогодний концерт Венского филармонического оркестра 2002 / Neujahrskonzert der Wiener Philharmoniker 2002 (2002) BDRip 720p от ivandubskoj

52 | 4

4.38 ГБ

В этой теме нет новых непрочитанных сообщений. Баскетбол. НБА. Зведный Уик-энд 2002 / NBA. All-Star Weekend 2002 (2002) TVRip

0 | 24

11.75 ГБ

В этой теме нет новых непрочитанных сообщений. Китайская одиссея / Chinese Odyssey (1994-2002) DVDRip + Китaйская истoрия / A Chinеse Tall Stоry (2005) DVDRip

11 | 44

4.51 ГБ

В этой теме нет новых непрочитанных сообщений. Камчатка / Kamchatka DVDRip (2002) DVDRip | L1

37 | 19

1.79 ГБ

В этой теме нет новых непрочитанных сообщений. Владимир Высоцкий - Дорожная история [REMIX 2002] (2002) FLAC

1 | 3

519.79 МБ




Вы не можете начинать темы
Вы не можете отвечать на сообщения
Вы не можете редактировать свои сообщения
Вы не можете удалять свои сообщения
Вы не можете добавлять вложения

Перейти:  
Для Мосгорсуда, Роскомнадзора и рекламодателей: mosgorsud-torrent[собачка]yandex.ru
 Вход
ppkBB3cker v.2 © 2008-2014 @ PPK
[ Time : 0.727s | 14 Queries | GZIP : On ]

Торрент трекер RUTOR.IN, Не можете зайти на rutor.org? Какой новый адрес рутор? Какое зеркало рутор? Не работает rutor.org и зеркала? Тогда наш торрент специально для вас. Rutor.in неофициальное зеркало rutor. В случае если у Вас заблокирован rutor или вдруг Вы не можете на него зайти, то Вы без труда сможете скачать бесплатно и без рекламы последние новинки кино, игр, сериалов и прочего у нас, на Rutor.in. Не нужно использовать прокси, чтобы зайти на рутор, достаточно воспользоваться нашим ресурсом. Все новые фильмы, игры, сериалы, книги и музыка за 2013 и 2014 годы через торрент бесплатно. Скачивайте фильмы в хорошем качестве, игры для пк, xbox, playstation без регистрации. У нас вы найдете новые Зарубежные сериалы и Русские сериалы 2013, 2014, 2015 годов. Оставайтесь с нами, качайте любимые фильмы, игры, сериалы, книги и музыку.