img image001 image001 image001 image001 image001 image001 image001 image001 image001 image001 image001 image001 image001 image001 image001

Planets Sun Sun Sun
Статистика раздачи
Автор: Снежана | Размер: 4.86 ГБ | Добавлен: 26 июл 2013
Раздают: 13    Качают: 3
Скачать торрент
Скачать торрент
Описание торрента

СообщениеДобавлено: 26 июл 2013 

#77

Информация о фильме:
Название: Вторая Мировая война
Оригинальное название: WWII
Год выхода: 2011
Жанр: Документальный
В ролях: исследователи

О фильме:
Документальный фильм рассказывает историю Второй мировой войны от ее развязывания нацистской Германией и развертке по всей Европе до контрнаступления союзников и падения нацистской Германии.В первые, вы увидите, драматические моменты Второй мировой войны, которые были захвачены в 3D с stereographs.Этот потрясающий набор цветов 3D фотографии включает в себя разведку союзников. Фотографии документов взлет и падение Третьего рейха. Вторая мировая война в 3D также показывает факты 3D расстрела нацистами в 1943 году и создает абсолютно реалистичный трехмерным портрет из самых крупных и кровавых конфликтов в истории.

Выпущено: США
Продолжительность: 00:44:03
Озвучивание: Профессиональный (Одноголосый закадровый)

Файл:
Формат: MKV
Качество: BDrip 1080p
Формат 3D: Half OverUnder / Вертикальная анаморфная стереопара
Видео: 1920x1080, 23.976 fps, x264, AVC, ~13,5 Mbit/s, 0.272 bit/pixel
Аудио 1: Russian 48 kHz, AC3, 3/2 (L,C,R,l,r) + LFE ch, ~448.00 kbps
Аудио 2: English 48 kHz, DTS, 3/2 (L,C,R,l,r) + LFE ch, ~1510 kbps
Субтитры: Format PGS: English, Chinese, Dutch, German, Polish, Span

Общее
Уникальный идентификатор : 188613608226364703374028734738366250888 (0x8DE5A8DB8F29229483DEA59C4280BF88)
Полное имя : E:ФильмыWWII in 3D.mkv
Формат : Matroska
Версия формата : Version 2
Размер файла : 4,86 Гбайт
Продолжительность : 44 м.
Общий поток : 15,8 Мбит/сек
Дата кодирования : UTC 2012-03-06 17:09:18
Программа кодирования : mkvmerge v5.0.1 ('Es ist Sommer') built on Oct 24 2011 19:45:06
Библиотека кодирования : libebml v1.2.2 + libmatroska v1.3.0

Видео
Идентификатор : 1
Формат : AVC
Формат/Информация : Advanced Video Codec
Профиль формата : High@L4.1
Параметр CABAC формата : Да
Параметр ReFrames формата : 4 кадра
Идентификатор кодека : V_MPEG4/ISO/AVC
Продолжительность : 44 м.
Битрейт : 13,5 Мбит/сек
Ширина : 1920 пикселей
Высота : 1080 пикселей
Соотношение сторон : 16:9
Частота кадров : 23,976 кадра/сек
Цветовое пространство : YUV
Субдискретизация насыщенности : 4:2:0
Битовая глубина : 8 бит
Тип развёртки : Прогрессивная
Бит/(Пиксели*Кадры) : 0.272
Размер потока : 4,16 Гбайт (86%)
Библиотека кодирования : x264 core 120 r2164 da19765
Настройки программы : cabac=1 / ref=4 / deblock=1:-3:-3 / analyse=0x3:0x133 / me=umh / subme=10 / psy=1 / psy_rd=0.90:0.00 / mixed_ref=1 / me_range=32 / chroma_me=1 / trellis=2 / 8x8dct=1 / cqm=0 / deadzone=21,11 / fast_pskip=0 / chroma_qp_offset=-2 / threads=12 / sliced_threads=0 / nr=0 / decimate=1 / interlaced=0 / bluray_compat=0 / constrained_intra=0 / bframes=10 / b_pyramid=2 / b_adapt=2 / b_bias=0 / direct=3 / weightb=1 / open_gop=0 / weightp=2 / keyint=250 / keyint_min=23 / scenecut=40 / intra_refresh=0 / rc_lookahead=40 / rc=2pass / mbtree=1 / bitrate=13500 / ratetol=1.0 / qcomp=0.60 / qpmin=0 / qpmax=69 / qpstep=4 / cplxblur=20.0 / qblur=0.5 / frame-packing=3 / ip_ratio=1.40 / aq=2:0.80
Язык : English
Default : Да
Forced : Нет

Аудио #1
Идентификатор : 2
Формат : AC-3
Формат/Информация : Audio Coding 3
Расширение режима : CM (complete main)
Идентификатор кодека : A_AC3
Продолжительность : 44 м.
Вид битрейта : Постоянный
Битрейт : 448 Кбит/сек
Каналы : 6 каналов
Расположение каналов : Front: L C R, Side: L R, LFE
Частота : 48,0 КГц
Битовая глубина : 16 бит
Метод сжатия : С потерями
Размер потока : 141 Мбайт (3%)
Заголовок : Rus
Язык : Russian
Default : Да
Forced : Нет

Аудио #2
Идентификатор : 3
Формат : DTS
Формат/Информация : Digital Theater Systems
Идентификатор кодека : A_DTS
Продолжительность : 44 м.
Вид битрейта : Постоянный
Битрейт : 1510 Кбит/сек
Каналы : 6 каналов
Расположение каналов : Front: L C R, Side: L R, LFE
Частота : 48,0 КГц
Битовая глубина : 24 бит
Метод сжатия : С потерями
Размер потока : 476 Мбайт (10%)
Заголовок : Eng
Язык : English
Default : Нет
Forced : Нет

Текст #1
Идентификатор : 4
Формат : PGS
Идентификатор кодека : S_HDMV/PGS
Идентификатор кодека/Информация : The same subtitle format used on BDs/HD-DVDs
Заголовок : Eng
Язык : English
Default : Да
Forced : Нет

Текст #2
Идентификатор : 5
Формат : PGS
Идентификатор кодека : S_HDMV/PGS
Идентификатор кодека/Информация : The same subtitle format used on BDs/HD-DVDs
Язык : Chinese
Default : Нет
Forced : Нет

Текст #3
Идентификатор : 6
Формат : PGS
Идентификатор кодека : S_HDMV/PGS
Идентификатор кодека/Информация : The same subtitle format used on BDs/HD-DVDs
Язык : Chinese
Default : Нет
Forced : Нет

Текст #4
Идентификатор : 7
Формат : PGS
Идентификатор кодека : S_HDMV/PGS
Идентификатор кодека/Информация : The same subtitle format used on BDs/HD-DVDs
Язык : Dutch
Default : Нет
Forced : Нет

Текст #5
Идентификатор : 8
Формат : PGS
Идентификатор кодека : S_HDMV/PGS
Идентификатор кодека/Информация : The same subtitle format used on BDs/HD-DVDs
Язык : German
Default : Нет
Forced : Нет

Текст #6
Идентификатор : 9
Формат : PGS
Идентификатор кодека : S_HDMV/PGS
Идентификатор кодека/Информация : The same subtitle format used on BDs/HD-DVDs
Язык : Polish
Default : Нет
Forced : Нет

Текст #7
Идентификатор : 10
Формат : PGS
Идентификатор кодека : S_HDMV/PGS
Идентификатор кодека/Информация : The same subtitle format used on BDs/HD-DVDs
Язык : Spanish
Default : Нет
Forced : Нет

Меню
00:00:00.000 : en:00:00:00.000
00:13:09.038 : en:00:13:09.038
00:19:39.220 : en:00:19:39.220
00:27:59.469 : en:00:27:59.469
00:35:14.654 : en:00:35:14.654







   Похожие торренты   Торрент   Размер 
В этой теме нет новых непрочитанных сообщений. Вторая Мировая война / WWII (2011) BDRip от ExKinoRay

15 | 4

841.21 МБ

В этой теме нет новых непрочитанных сообщений. Апокалипсис: Вторая мировая война / Apocalypse - La 2ème guerre mondiale (2009) BDRip 720p от HQ-ViDEO

55 | 13

17.47 ГБ

В этой теме нет новых непрочитанных сообщений. Апокалипсис: Вторая мировая война; Гитлер / Apocalypse - La 2ème guerre mondiale; Apocalypse - Hitler (2009-2011) BDRip 1080p от MediaClub

42 | 24

51.19 ГБ

В этой теме нет новых непрочитанных сообщений. Вторая мировая война в цвете [01-13 из 13] (2009-2011) HDRip от New-Team

609 | 46

7.96 ГБ

В этой теме нет новых непрочитанных сообщений. Вторая мировая война в цвете [01-13 из 13] (2009-2011) HDRip от New-Team

52 | 3

4.37 ГБ

В этой теме нет новых непрочитанных сообщений. Вторая мировая война в цвете [01-13 из 13] (2009-2011) HDRip-AVC от New-Team

32 | 10

12.08 ГБ

В этой теме нет новых непрочитанных сообщений. Апокалипсис: Вторая мировая война (Гитлер) / Apocalypse: The Second World War; Apocalypse - Hitler (2009-2011) BDRip 720p от ExKinoRay

176 | 77

27.5 ГБ




Вы не можете начинать темы
Вы не можете отвечать на сообщения
Вы не можете редактировать свои сообщения
Вы не можете удалять свои сообщения
Вы не можете добавлять вложения

Перейти:  
Для Мосгорсуда, Роскомнадзора и рекламодателей: mosgorsud-torrent[собачка]yandex.ru
 Вход
ppkBB3cker v.2 © 2008-2014 @ PPK
[ Time : 0.096s | 14 Queries | GZIP : Off ]

Торрент трекер RUTOR.IN, Не можете зайти на rutor.org? Какой новый адрес рутор? Какое зеркало рутор? Не работает rutor.org и зеркала? Тогда наш торрент специально для вас. Rutor.in неофициальное зеркало rutor. В случае если у Вас заблокирован rutor или вдруг Вы не можете на него зайти, то Вы без труда сможете скачать бесплатно и без рекламы последние новинки кино, игр, сериалов и прочего у нас, на Rutor.in. Не нужно использовать прокси, чтобы зайти на рутор, достаточно воспользоваться нашим ресурсом. Все новые фильмы, игры, сериалы, книги и музыка за 2013 и 2014 годы через торрент бесплатно. Скачивайте фильмы в хорошем качестве, игры для пк, xbox, playstation без регистрации. У нас вы найдете новые Зарубежные сериалы и Русские сериалы 2013, 2014, 2015 годов. Оставайтесь с нами, качайте любимые фильмы, игры, сериалы, книги и музыку.