img image001 image001 image001 image001 image001 image001 image001 image001 image001 image001 image001 image001 image001 image001 image001

Planets Sun Sun Sun
Статистика раздачи
Автор: Снежана | Размер: 715.9 МБ | Добавлен: 26 июл 2013
Раздают: 4    Качают: 2
Скачать торрент
Скачать торрент
Описание торрента

СообщениеДобавлено: 26 июл 2013 



Информация о фильме
Название: Тот, кто убил Шерлока Холмса
Оригинальное название: The Man who Murdered Sherlock Holmes
Год выхода: 2012
Жанр: Документальный, историко-познавательный.
Режиссер: Ричард Джонс

О фильме:
Документальный фильм о самом знаменитом литературном сыщике и его создателе. Шерлок Холмс был и остается неповторимым феноменом. Его создатель, сэр Артур Конан Дойл, стал самым высокооплачиваемым автором своего времени. Он же придумал новую форму беллетристики, а также героя, которого англичане буквально обожали. Но в 1891 году Дойл внезапно положил конец приключениям Холмса.
Страна: Великобритания
Продолжительность: 00:57:43
Перевод: Одноголосый закадровый, профессиональный (Первый канал)

Файл
Кодек: XVID
Качество: SATRip
Видео: 720 x 404 (1.782) at 25.000 fps/MPEG-4 Visual at 1532 Кбит/сек
Звук: MPEG Audio at 192 Кбит/сек/2 канала, 48,0 КГц

Видео
Идентификатор : 0
Формат : MPEG-4 Visual
Профиль формата : Advanced Simple@L5
Параметр BVOP формата : 2
Параметр QPel формата : Нет
Параметр GMC формата : Без точки перехода
Параметр матрицы формата : Default (H.263)
Режим смешивания : Сжатый битовый поток
Идентификатор кодека : XVID
Идентификатор кодека/Подсказка : XviD
Продолжительность : 57 м.
Битрейт : 1532 Кбит/сек
Ширина : 720 пикселей
Высота : 404 пикселя
Соотношение сторон : 16:9
Частота кадров : 25,000 кадров/сек
Цветовое пространство : YUV
Субдискретизация насыщенности : 4:2:0
Битовая глубина : 8 бит
Тип развёртки : Прогрессивная
Метод сжатия : С потерями
Бит/(Пиксели*Кадры) : 0.211
Размер потока : 633 Мбайт (88%)
Библиотека кодирования : XviD 1.0.3 (UTC 2004-12-20)

Аудио
Идентификатор : 1
Формат : MPEG Audio
Версия формата : Version 1
Профиль формата : Layer 3
Режим : Joint stereo
Идентификатор кодека : 55
Идентификатор кодека/Подсказка : MP3
Продолжительность : 57 м.
Вид битрейта : Постоянный
Битрейт : 192 Кбит/сек
Каналы : 2 канала
Частота : 48,0 КГц
Метод сжатия : С потерями
Размер потока : 79,3 Мбайт (11%)
Выравнивание : Разделение по промежуткам
Продолжительность промежутка : 40 мс. (1,00 видеокадр)
Время предзагрузки промежутка : 500 мс.



   Похожие торренты   Торрент   Размер 
В этой теме нет новых непрочитанных сообщений. Последняя воля Шерлока Холмса / The Testament of Sherlock Holmes (2012) PS3

26 | 6

8.82 ГБ

В этой теме нет новых непрочитанных сообщений. Последняя воля Шерлока Холмса / The Testament of Sherlock Holmes (2012) HDRip | Трейлер

0 | 2

20.34 МБ

В этой теме нет новых непрочитанных сообщений. Последняя воля Шерлока Холмса / The Testament Of Sherlock Holmes [v 1.0.0.4] (2012) PC | RePack от Fenixx

422 | 22

4.69 ГБ

В этой теме нет новых непрочитанных сообщений. Приключения Шерлока Холмса / The Adventures of Sherlock Holmes (1939) BDRip от HQCLUB

3 | 2

1.09 ГБ

В этой теме нет новых непрочитанных сообщений. Приключения Шерлока Холмса / The Adventures of Sherlock Holmes [S01-04] (1984-1994) HDRip

14 | 20

29.94 ГБ

В этой теме нет новых непрочитанных сообщений. Приключения Шерлока Холмса / The Adventures of Sherlock Holmes [41 из 41] (1984-1994) DVDRip

15 | 11

24.18 ГБ

В этой теме нет новых непрочитанных сообщений. Приключения Шерлока Холмса / The Adventures of Sherlock Holmes [S01-04] (1984-1994) BDRip 720p от GYN

34 | 130

133.95 ГБ




Вы не можете начинать темы
Вы не можете отвечать на сообщения
Вы не можете редактировать свои сообщения
Вы не можете удалять свои сообщения
Вы не можете добавлять вложения

Перейти:  
Для Мосгорсуда, Роскомнадзора и рекламодателей: mosgorsud-torrent[собачка]yandex.ru
 Вход
ppkBB3cker v.2 © 2008-2014 @ PPK
[ Time : 0.045s | 15 Queries | GZIP : Off ]

cron