img image001 image001 image001 image001 image001 image001 image001 image001 image001 image001 image001 image001 image001 image001 image001

Planets Sun Sun Sun
Статистика раздачи
Автор: Снежана | Размер: 388 МБ | Добавлен: 26 июл 2013
Раздают: 0    Качают: 1
Скачать торрент
Скачать торрент
Описание торрента

СообщениеДобавлено: 26 июл 2013 

#77

Информация о фильме
Название: Hезависимость Перекрёстки . Фильм АТН .

Год выхода: 2012
Жанр: документальный
Производство: Белтелерадиокомпания
О программе:
Документальный фильм ко Дню Независимости Республики Беларусь, который рассказывает о нелегком пути становления независимой Беларуси, от самой советской, из всех республик бывшего Союза, до состоявшегося молодого европейского государства .

Страна: Беларусь
Продолжительность программы: ~00:51:10
Перевод: Не требуется

Файл
Кодек: X264
Качество: DVBRip
Видео: 704x398, 25 к/с, 16:9, 1000 кбит/с, REFame = 8, CABAC
Звук: AAC, 56 кбит/с, 48 кгц, mono, СBR

General
Format : MPEG-4
Format profile : Base Media
Codec ID : isom
File size : 388 MiB
Duration : 51mn 9s
Overall bit rate mode : Variable
Overall bit rate : 1 060 Kbps
Encoded date : UTC 2012-07-03 15:46:04
Tagged date : UTC 2012-07-03 15:46:04
Writing application : My MP4Box GUI 0.5.5.4

Video
ID : 1
Format : AVC
Format/Info : Advanced Video Codec
Format profile : High@L3.1
Format settings, CABAC : Yes
Format settings, ReFrames : 8 frames
Codec ID : avc1
Codec ID/Info : Advanced Video Coding
Duration : 51mn 9s
Bit rate : 1 000 Kbps
Maximum bit rate : 4 387 Kbps
Width : 704 pixels
Height : 398 pixels
Display aspect ratio : 16:9
Frame rate mode : Constant
Frame rate : 25.000 fps
Color space : YUV
Chroma subsampling : 4:2:0
Bit depth : 8 bits
Scan type : Progressive
Bits/(Pixel*Frame) : 0.143
Stream size : 366 MiB (94%)
Title : Video
Writing library : x264 core 119 r2106 07efeb4
Encoding settings : cabac=1 / ref=8 / deblock=1:0:0 / analyse=0x3:0x133 / me=umh / subme=9 / psy=1 / psy_rd=1.00:0.00 / mixed_ref=1 / me_range=16 / chroma_me=1 / trellis=2 / 8x8dct=1 / cqm=0 / deadzone=21,11 / fast_pskip=1 / chroma_qp_offset=-2 / threads=6 / sliced_threads=0 / nr=0 / decimate=1 / interlaced=0 / bluray_compat=0 / constrained_intra=0 / bframes=3 / b_pyramid=2 / b_adapt=2 / b_bias=0 / direct=3 / weightb=1 / open_gop=0 / weightp=2 / keyint=250 / keyint_min=25 / scenecut=40 / intra_refresh=0 / rc_lookahead=60 / rc=2pass / mbtree=1 / bitrate=1000 / ratetol=1.0 / qcomp=0.60 / qpmin=0 / qpmax=69 / qpstep=4 / cplxblur=20.0 / qblur=0.5 / ip_ratio=1.40 / aq=1:1.00
Encoded date : UTC 2012-07-04 15:43:50
Tagged date : UTC 2012-07-03 15:46:15

Audio
ID : 2
Format : AAC
Format/Info : Advanced Audio Codec
Format profile : LC
Codec ID : 40
Duration : 51mn 9s
Bit rate mode : Variable
Bit rate : 56.0 Kbps
Maximum bit rate : 60.0 Kbps
Channel(s) : 1 channel
Channel positions : Front: C
Sampling rate : 48.0 KHz
Compression mode : Lossy
Delay relative to video : -3s 333ms
Stream size : 20.5 MiB (5%)
Encoded date : UTC 2012-07-03 15:46:15
Tagged date : UTC 2012-07-03 15:46:15





   Похожие торренты   Торрент   Размер 
В этой теме нет новых непрочитанных сообщений. Перекрестки / Crossroads (2002) WEB-DL 720p | D, A

185 | 117

3.16 ГБ

В этой теме нет новых непрочитанных сообщений. Перекрестки / Crossroads (2002) DVDRip

19 | 8

1.4 ГБ

В этой теме нет новых непрочитанных сообщений. Перекрестки / Crossroads (2002) WEB-DLRip от ivandubskoj | D, A

57 | 58

1.46 ГБ

В этой теме нет новых непрочитанных сообщений. Перекрестки / Crossroads (1986) HDTV 720p

2 | 2

4.28 ГБ

В этой теме нет новых непрочитанных сообщений. Чемпионат мира по ралли 2012 / World Rally Championship (WRC) 2012. 11/13. Франция. Обзор (2012) DVBRip

0 | 4

7.41 ГБ

В этой теме нет новых непрочитанных сообщений. Чемпионат мира по ралли 2012 / World Rally Championship (WRC) 2012. 12/13. Италия. Обзор (2012) DVBRip, HDTVRip 720р

0 | 1

4.27 ГБ

В этой теме нет новых непрочитанных сообщений. King's Bounty: Перекрестки Миров (2010) PC | Repack By Vitek *Fixed*

557 | 9

2.08 ГБ




Вы не можете начинать темы
Вы не можете отвечать на сообщения
Вы не можете редактировать свои сообщения
Вы не можете удалять свои сообщения
Вы не можете добавлять вложения

Перейти:  
Для Мосгорсуда, Роскомнадзора и рекламодателей: mosgorsud-torrent[собачка]yandex.ru
 Вход
ppkBB3cker v.2 © 2008-2014 @ PPK
[ Time : 0.057s | 14 Queries | GZIP : Off ]

Торрент трекер RUTOR.IN, Не можете зайти на rutor.org? Какой новый адрес рутор? Какое зеркало рутор? Не работает rutor.org и зеркала? Тогда наш торрент специально для вас. Rutor.in неофициальное зеркало rutor. В случае если у Вас заблокирован rutor или вдруг Вы не можете на него зайти, то Вы без труда сможете скачать бесплатно и без рекламы последние новинки кино, игр, сериалов и прочего у нас, на Rutor.in. Не нужно использовать прокси, чтобы зайти на рутор, достаточно воспользоваться нашим ресурсом. Все новые фильмы, игры, сериалы, книги и музыка за 2013 и 2014 годы через торрент бесплатно. Скачивайте фильмы в хорошем качестве, игры для пк, xbox, playstation без регистрации. У нас вы найдете новые Зарубежные сериалы и Русские сериалы 2013, 2014, 2015 годов. Оставайтесь с нами, качайте любимые фильмы, игры, сериалы, книги и музыку.