img image001 image001 image001 image001 image001 image001 image001 image001 image001 image001 image001 image001 image001 image001 image001

Planets Sun Sun Sun
Статистика раздачи
Автор: Снежана | Размер: 439.1 МБ | Добавлен: 26 июл 2013
Раздают: 1    Качают: 1
Скачать торрент
Скачать торрент
Описание торрента

СообщениеДобавлено: 26 июл 2013 

#77


Информация о фильме
Название: Латинская Америка. Белорусский Вектор
Год выхода: 2012
Жанр: документальный
Производство: Белтелерадиокомпания
О фильме:
Фильм по итогам визита Президента Республики Беларусь Лукашенко А.Г. на Кубу, Венесуэлу и Эквадор.
В чем интерес Беларуси на новом континенте? Чем можно торговать с Эквадором? И что дарят президенты друг другу ?!

Страна: Беларусь
Продолжительность программы: 00:55:48
Перевод: Не требуется

Файл
Кодек: X264
Качество: DVBRip
Видео: 720x400, 25 к/с, 16:9, 1000 кбит/с, REFame = 8, CABAC
Звук: AAC, 96 кбит/с, 48 кгц, стерео, СBR
Формат : MPEG-4
Профиль формата : Base Media
Идентификатор кодека : isom
Размер файла : 439 Мбайт
Продолжительность : 55 м.
Режим общего битрейта : Переменный
Общий поток : 1100 Кбит/сек
Дата кодирования : UTC 2012-07-09 04:46:53
Дата пометки : UTC 2012-07-09 04:46:53
Программа кодирования : My MP4Box GUI 0.5.5.4

Видео
Идентификатор : 1
Формат : AVC
Формат/Информация : Advanced Video Codec
Профиль формата : High@L3.1
Параметр CABAC формата : Да
Параметр ReFrames формата : 8 кадров
Идентификатор кодека : avc1
Идентификатор кодека/Информация : Advanced Video Coding
Продолжительность : 55 м.
Битрейт : 1000 Кбит/сек
Максимальный битрейт : 4396 Кбит/сек
Ширина : 720 пикселей
Высота : 400 пикселей
Соотношение сторон : 16:9
Режим частоты кадров : Постоянный
Частота кадров : 25,000 кадров/сек
Цветовое пространство : YUV
Субдискретизация насыщенности : 4:2:0
Битовая глубина : 8 бит
Тип развёртки : Прогрессивная
Бит/(Пиксели*Кадры) : 0.139
Размер потока : 399 Мбайт (91%)
Заголовок : Video
Библиотека кодирования : x264 core 119 r2106 07efeb4
Настройки программы : cabac=1 / ref=8 / deblock=1:0:0 / analyse=0x3:0x133 / me=umh / subme=9 / psy=1 / psy_rd=1.00:0.00 / mixed_ref=1 / me_range=16 / chroma_me=1 / trellis=2 / 8x8dct=1 / cqm=0 / deadzone=21,11 / fast_pskip=1 / chroma_qp_offset=-2 / threads=6 / sliced_threads=0 / nr=0 / decimate=1 / interlaced=0 / bluray_compat=0 / constrained_intra=0 / bframes=3 / b_pyramid=2 / b_adapt=2 / b_bias=0 / direct=3 / weightb=1 / open_gop=0 / weightp=2 / keyint=250 / keyint_min=25 / scenecut=40 / intra_refresh=0 / rc_lookahead=60 / rc=2pass / mbtree=1 / bitrate=1000 / ratetol=1.0 / qcomp=0.60 / qpmin=0 / qpmax=69 / qpstep=4 / cplxblur=20.0 / qblur=0.5 / ip_ratio=1.40 / aq=1:1.00
Дата кодирования : UTC 2012-07-09 23:12:41
Дата пометки : UTC 2012-07-09 04:47:10

Аудио
Идентификатор : 2
Формат : AAC
Формат/Информация : Advanced Audio Codec
Профиль формата : LC
Идентификатор кодека : 40
Продолжительность : 55 м.
Вид битрейта : Переменный
Битрейт : 96,0 Кбит/сек
Максимальный битрейт : 103 Кбит/сек
Каналы : 2 канала
Расположение каналов : Front: L R
Частота : 48,0 КГц
Метод сжатия : С потерями
Задержка видео : -3 с. 333 мс.
Размер потока : 38,3 Мбайт (9%)
Дата кодирования : UTC 2012-07-09 04:47:09
Дата пометки : UTC 2012-07-09 04:47:10






   Похожие торренты   Торрент   Размер 
В этой теме нет новых непрочитанных сообщений. Мир Наизнанку. Латинская Америка / Світ навиворіт. Латинська Америка [S06] (2015) HDTVRip 1080p

36 | 43

19.6 ГБ

В этой теме нет новых непрочитанных сообщений. Мир Наизнанку. Латинская Америка и Боливия / Світ навиворіт [06-07х01-17 из 22] (2015) SATRip от Files-x

33 | 11

14.25 ГБ

В этой теме нет новых непрочитанных сообщений. Мир Наизнанку. Латинская Америка и Боливия / Світ навиворіт [06-07х00-18 из 22] (2015) SATRip от Files-x

38 | 40

15.13 ГБ

В этой теме нет новых непрочитанных сообщений. Мир Наизнанку. Латинская Америка и Боливия / Світ навиворіт [06-07х00-20 из 22] (2015) SATRip от Files-x

17 | 84

16.89 ГБ

В этой теме нет новых непрочитанных сообщений. Вектор / Vector (2013) PC

617 | 12

46.45 МБ

В этой теме нет новых непрочитанных сообщений. Файл «Вектор» / The Vector File (2002) DVDRip от NovaLan

8 | 2

1.7 ГБ

В этой теме нет новых непрочитанных сообщений. VBT Вектор Beat [п.у. Slim (Centr), Небро, Good Hash Production, 4SGM] - Самопал (2011) MP3

80 | 6

151.39 МБ




Вы не можете начинать темы
Вы не можете отвечать на сообщения
Вы не можете редактировать свои сообщения
Вы не можете удалять свои сообщения
Вы не можете добавлять вложения

Перейти:  
Для Мосгорсуда, Роскомнадзора и рекламодателей: mosgorsud-torrent[собачка]yandex.ru
 Вход
ppkBB3cker v.2 © 2008-2014 @ PPK
[ Time : 0.020s | 14 Queries | GZIP : On ]

Торрент трекер RUTOR.IN, Не можете зайти на rutor.org? Какой новый адрес рутор? Какое зеркало рутор? Не работает rutor.org и зеркала? Тогда наш торрент специально для вас. Rutor.in неофициальное зеркало rutor. В случае если у Вас заблокирован rutor или вдруг Вы не можете на него зайти, то Вы без труда сможете скачать бесплатно и без рекламы последние новинки кино, игр, сериалов и прочего у нас, на Rutor.in. Не нужно использовать прокси, чтобы зайти на рутор, достаточно воспользоваться нашим ресурсом. Все новые фильмы, игры, сериалы, книги и музыка за 2013 и 2014 годы через торрент бесплатно. Скачивайте фильмы в хорошем качестве, игры для пк, xbox, playstation без регистрации. У нас вы найдете новые Зарубежные сериалы и Русские сериалы 2013, 2014, 2015 годов. Оставайтесь с нами, качайте любимые фильмы, игры, сериалы, книги и музыку.