img image001 image001 image001 image001 image001 image001 image001 image001 image001 image001 image001 image001 image001 image001 image001

Planets Sun Sun Sun
Статистика раздачи
Автор: Снежана | Размер: 367.82 МБ | Добавлен: 26 июл 2013
Раздают: 15    Качают: 4
Скачать торрент
Скачать торрент
Описание торрента

СообщениеДобавлено: 26 июл 2013 

#77

Информация о фильме
Название: Спецназ
Ведущий Аркадий Мамонтов
Год выхода: 2012
Жанр: документальный
Выпущено: Телеканал Россия-2
Перевод: не требуется

Описание:
Фильм "Спецназ" рассказывает о самом секретном подразделении российской армии. Офицеры и солдаты отряда специального назначения - это сильные, неординарные люди, которые в ответственный момент действуют не так, как все. Они и мыслят по-другому...

Видео: AVC, 640x480, 4:3, 25 fps, 1000 kbps, 0.130 bit/pixel, CABAC, ReFrame=8
Аудио: AAC (LC), 48 kHz, 2 ch, 96 kbps

Format : MPEG-4
Format profile : Base Media
Codec ID : isom
File size : 368 MiB
Duration : 46mn 41s
Overall bit rate mode : Variable
Overall bit rate : 1 101 Kbps
Encoded date : UTC 2012-07-13 17:44:43
Tagged date : UTC 2012-07-13 17:44:43
Writing application : My MP4Box GUI 0.5.5.4

Video
ID : 1
Format : AVC
Format/Info : Advanced Video Codec
Format profile : High@L3.1
Format settings, CABAC : Yes
Format settings, ReFrames : 8 frames
Codec ID : avc1
Codec ID/Info : Advanced Video Coding
Duration : 46mn 41s
Bit rate : 1 001 Kbps
Maximum bit rate : 5 210 Kbps
Width : 640 pixels
Height : 480 pixels
Display aspect ratio : 4:3
Original display aspect ratio : 4:3
Frame rate mode : Constant
Frame rate : 25.000 fps
Color space : YUV
Chroma subsampling : 4:2:0
Bit depth : 8 bits
Scan type : Progressive
Bits/(Pixel*Frame) : 0.130
Stream size : 334 MiB (91%)
Title : Video
Writing library : x264 core 119 r2106 07efeb4
Encoding settings : cabac=1 / ref=8 / deblock=1:0:0 / analyse=0x3:0x133 / me=umh / subme=9 / psy=1 / psy_rd=1.00:0.00 / mixed_ref=1 / me_range=16 / chroma_me=1 / trellis=2 / 8x8dct=1 / cqm=0 / deadzone=21,11 / fast_pskip=1 / chroma_qp_offset=-2 / threads=6 / sliced_threads=0 / nr=0 / decimate=1 / interlaced=0 / bluray_compat=0 / constrained_intra=0 / bframes=3 / b_pyramid=2 / b_adapt=2 / b_bias=0 / direct=3 / weightb=1 / open_gop=0 / weightp=2 / keyint=250 / keyint_min=25 / scenecut=40 / intra_refresh=0 / rc_lookahead=60 / rc=2pass / mbtree=1 / bitrate=1001 / ratetol=1.0 / qcomp=0.60 / qpmin=0 / qpmax=69 / qpstep=4 / cplxblur=20.0 / qblur=0.5 / ip_ratio=1.40 / aq=1:1.00
Encoded date : UTC 2012-07-14 17:12:47
Tagged date : UTC 2012-07-13 17:44:52

Audio
ID : 2
Format : AAC
Format/Info : Advanced Audio Codec
Format profile : LC
Codec ID : 40
Duration : 46mn 41s
Bit rate mode : Variable
Bit rate : 96.0 Kbps
Maximum bit rate : 102 Kbps
Channel(s) : 2 channels
Channel positions : Front: L R
Sampling rate : 48.0 KHz
Compression mode : Lossy
Delay relative to video : -3s 333ms
Stream size : 32.1 MiB (9%)
Encoded date : UTC 2012-07-13 17:44:51
Tagged date : UTC 2012-07-13 17:44:52


Скриншоты



   Похожие торренты   Торрент   Размер 
В этой теме нет новых непрочитанных сообщений. Корчевский Юрий - Спецназ всегда Спецназ. Прорыв диверсанта (2015) FB2, RTF

203 | 18

11.02 МБ

В этой теме нет новых непрочитанных сообщений. Спецназ ГРУ - Волкодавы (2005) SATRip

46 | 8

476.77 МБ

В этой теме нет новых непрочитанных сообщений. СПЕЦНАЗ. Успеть вовремя (2013) SATRip

823 | 19

271.16 МБ

В этой теме нет новых непрочитанных сообщений. Спецназ Второй мировой [1-4 из 4] (2010) SATRip

10 | 9

1.96 ГБ

В этой теме нет новых непрочитанных сообщений. Спецназ Майами / Miami SWAT [01-06 из 06] (2009) SATRip

1 | 2

3.01 ГБ

В этой теме нет новых непрочитанных сообщений. Спецназ (2012) TVRip

6 | 4

836.21 МБ

В этой теме нет новых непрочитанных сообщений. Военная приемка. Беспилотники. Воздушный спецназ (2015) SATRip

683 | 61

643.06 МБ




Вы не можете начинать темы
Вы не можете отвечать на сообщения
Вы не можете редактировать свои сообщения
Вы не можете удалять свои сообщения
Вы не можете добавлять вложения

Перейти:  
Для Мосгорсуда, Роскомнадзора и рекламодателей: mosgorsud-torrent[собачка]yandex.ru
 Вход
ppkBB3cker v.2 © 2008-2014 @ PPK
[ Time : 0.025s | 14 Queries | GZIP : Off ]

Торрент трекер RUTOR.IN, Не можете зайти на rutor.org? Какой новый адрес рутор? Какое зеркало рутор? Не работает rutor.org и зеркала? Тогда наш торрент специально для вас. Rutor.in неофициальное зеркало rutor. В случае если у Вас заблокирован rutor или вдруг Вы не можете на него зайти, то Вы без труда сможете скачать бесплатно и без рекламы последние новинки кино, игр, сериалов и прочего у нас, на Rutor.in. Не нужно использовать прокси, чтобы зайти на рутор, достаточно воспользоваться нашим ресурсом. Все новые фильмы, игры, сериалы, книги и музыка за 2013 и 2014 годы через торрент бесплатно. Скачивайте фильмы в хорошем качестве, игры для пк, xbox, playstation без регистрации. У нас вы найдете новые Зарубежные сериалы и Русские сериалы 2013, 2014, 2015 годов. Оставайтесь с нами, качайте любимые фильмы, игры, сериалы, книги и музыку.