img image001 image001 image001 image001 image001 image001 image001 image001 image001 image001 image001 image001 image001 image001 image001

Planets Sun Sun Sun
Статистика раздачи
Автор: Снежана | Размер: 1.93 ГБ | Добавлен: 26 июл 2013
Раздают: 4    Качают: 1
Скачать торрент
Скачать торрент
Описание торрента

СообщениеДобавлено: 26 июл 2013 

#77

Информация о фильме
Название: Тайны наркомов
Год выхода: 2012
Жанр: документальный
Ведущий: Василий Ливанов

О фильме:
Их имена известны всем, однако о том, кем они были на самом деле, знают лишь избранные. Кто и почему считал Александру Колонтай французской шпионкой? Как Вячеславу Молотову удалось избежать расстрела? Чем пожертвовал Анастас Микоян ради Родины и в чем был секрет Климента Ворошилова? Ответы на эти и другие вопросы, которые раньше находились под грифом секретно, в этом фильме.
Страна: Россия
Студия: ООО "ТВ Медиа Мобайл", ТК "Звезда"
Продолжительность: 4 х ~ 00:40:00
General
Complete name : C:Tajny.narkomov.(4.serii.iz.4).2012.XviD.SATRip.aviTajny.narkomov.(1.serija.iz.4).Kliment.Voroshiliv.2012.XviD.SATRip.avi
Format : AVI
Format/Info : Audio Video Interleave
File size : 495 MiB
Duration : 39mn 27s
Overall bit rate : 1 753 Kbps
Writing application : VirtualDubMod 1.5.10.3 | www.virtualdub-fr.org || (build 2550/release)
Writing library : VirtualDubMod build 2550/release
Video #0
ID : 0
Format : MPEG-4 Visual
Format profile : Advanced Simple@L5
Format settings, BVOP : 2
Format settings, QPel : No
Format settings, GMC : No warppoints
Format settings, Matrix : Default (H.263)
Codec ID : XVID
Codec ID/Hint : XviD
Duration : 39mn 27s
Bit rate : 1 615 Kbps
Width : 704 pixels
Height : 400 pixels
Display aspect ratio : 16:9
Frame rate : 25.000 fps
Color space : YUV
Chroma subsampling : 4:2:0
Bit depth : 8 bits
Scan type : Progressive
Compression mode : Lossy
Bits/(Pixel*Frame) : 0.229
Stream size : 456 MiB (92%)
Writing library : XviD 65
Audio #1
ID : 1
Format : MPEG Audio
Format version : Version 1
Format profile : Layer 3
Codec ID : 55
Codec ID/Hint : MP3
Duration : 39mn 27s
Bit rate mode : Constant
Bit rate : 128 Kbps
Channel(s) : 2 channels
Sampling rate : 48.0 KHz
Compression mode : Lossy
Stream size : 36.1 MiB (7%)
Alignment : Aligned on interleaves
Interleave, duration : 40 ms (1.00 video frame)
Interleave, preload duration : 504 ms
Writing library : LAME3.99r
Encoding settings : -m s -V 4 -q 0 -lowpass 17 -b 128


Файл
Кодек: XviD
Качество: SATRip
Видео: 704x400, ~ 1570 kbps, 25 fps
Звук: MP3, 2 ch., 128 kbps

Семпл

, , ,


Релиз от:



   Похожие торренты   Торрент   Размер 
В этой теме нет новых непрочитанных сообщений. Тайны следствия-11 [01-12 из 12] (2012) SATRip от КинозалSAT

423 | 82

6.45 ГБ

В этой теме нет новых непрочитанных сообщений. Тайны следствия - 12 [01-12 из 12] (2012) SATRip от КинозалSAT

361 | 93

6.45 ГБ

В этой теме нет новых непрочитанных сообщений. Музейные тайны / Museum secrets [01-06] (2012) SATRip | P1

10 | 2

3.55 ГБ

В этой теме нет новых непрочитанных сообщений. Тайны института благородных девиц [001-259 из 259] (2012-2013) SATRip

12 | 56

139.85 ГБ

В этой теме нет новых непрочитанных сообщений. Михаил Савицкий. Тайны биографии (2012) SATRip от AND03AND

15 | 4

420.33 МБ

В этой теме нет новых непрочитанных сообщений. Великие тайны с Игорем Прокопенко. Великие тайны исчезнувших цивилизаций [27.03] (2014) SATRip

331 | 16

1.09 ГБ

В этой теме нет новых непрочитанных сообщений. Великие тайны с Игорем Прокопенко. Великие тайны древних летописей [03.04] (2014) SATRip

639 | 60

1.3 ГБ




Вы не можете начинать темы
Вы не можете отвечать на сообщения
Вы не можете редактировать свои сообщения
Вы не можете удалять свои сообщения
Вы не можете добавлять вложения

Перейти:  
Для Мосгорсуда, Роскомнадзора и рекламодателей: mosgorsud-torrent[собачка]yandex.ru
 Вход
ppkBB3cker v.2 © 2008-2014 @ PPK
[ Time : 0.035s | 14 Queries | GZIP : Off ]

Торрент трекер RUTOR.IN, Не можете зайти на rutor.org? Какой новый адрес рутор? Какое зеркало рутор? Не работает rutor.org и зеркала? Тогда наш торрент специально для вас. Rutor.in неофициальное зеркало rutor. В случае если у Вас заблокирован rutor или вдруг Вы не можете на него зайти, то Вы без труда сможете скачать бесплатно и без рекламы последние новинки кино, игр, сериалов и прочего у нас, на Rutor.in. Не нужно использовать прокси, чтобы зайти на рутор, достаточно воспользоваться нашим ресурсом. Все новые фильмы, игры, сериалы, книги и музыка за 2013 и 2014 годы через торрент бесплатно. Скачивайте фильмы в хорошем качестве, игры для пк, xbox, playstation без регистрации. У нас вы найдете новые Зарубежные сериалы и Русские сериалы 2013, 2014, 2015 годов. Оставайтесь с нами, качайте любимые фильмы, игры, сериалы, книги и музыку.