img image001 image001 image001 image001 image001 image001 image001 image001 image001 image001 image001 image001 image001 image001 image001

Planets Sun Sun Sun
Статистика раздачи
Автор: Снежана | Размер: 2.9 ГБ | Добавлен: 26 июл 2013
Раздают: 8    Качают: 21
Скачать торрент
Скачать торрент
Описание торрента

СообщениеДобавлено: 26 июл 2013 

#77

Год выпуска: 2012
Страна: Россия
Студия: ООО "Авангард"

Жанр: документальный
Продолжительность: 03:01:35 (по 3 минуты 15 секунд на серию в среднем).

Перевод: не требуется
Субтитры: нет
Оригинальная аудиодорожка: русский

Режиссер: Александр Сидоров

Описание: В июне 1812 года, форсировав Неман, в Россию хлынула 640-тысячная армия захватчиков, а полгода спустя тот же Неман пересекли, но в обратном направлении, 30 тысяч побитых "завоевателей" — оборванных, еле живых. Войско Наполеона, не знавшее поражений на пространстве от Рейна до Египта, от Лиссабона до Греческого архипелага, от Рима до Балтики, пережило неслыханную в истории военную катастрофу. Нет, русские не "взяли числом". К началу войны Франция вместе с вассалами, снабжавшими ее пушечным мясом, имела вдвое большее население, чем Россия, а русская армия уступала французской по численности в полтора раза. 56 серий документального цикла "1812. Энциклопедия Великой Войны" рассказывают о "русском чуде", случившемся 200 лет назад...





Исходник: 5xDVD5 R5
Качество: DVDRip
Формат: AVI
Видео: 720x400 (16:9), 25 fps, XviD MPEG-4 ~ 2079 kbps avg, 0.289 bit/pixel
Аудио: Русский AC3 2.0, 192Kbps, 48 khz
Субтитры: Нет

Раздача от:

01 - Отечественная война 1812 года
02 - Тильзит
03 - Каолиция
04 - Шерше ля фам
05 - Информаторы
06 - Чернышев
07 - Вторжение
08 - Общество
09 - Барклай де Толли
10 - Кульнев
11 - Погоня
12 - Неверовский
13 - Ополчение
14 - Смоленск
15 - Кутузов
16 - Ростопчин
17 - Надежда Дурова
18 - Фальшивомонетчики
19 - Давыдов
20 - Аэростат
21 - Четвертак
22 - Диспозиция
23 - Шервардинский редут
24 - Багратион
25 - Платов
26 - Бородино
27 - Тучков четвертый
28 - Фили
29 - Мародеры
30 - Пожар
31 - Народная война
32 - Исход
33 - Партизаны
34 - Западня
35 - Кремль
36 - Марш-маневр
37 - Милорадович
38 - Сеславин
39 - Малоярославец
40 - Дохтуров
41 - Городня
42 - Старая смоленская дорога
43 - Клад Наполеона
44 - Красное
45 - Березина
46 - Чичагов
47 - Наполеон
48 - Катастрофа
49 - Александр первый
50 - Шеромыжники
51 - Фельдмаршал
52 - Битва народов
53 - Северные амуры
54 - Париж
55 - Война и мир
56 - 200 лет спустя

Общее
Полное имя : 1812.2012.O.DVDRip_[Youtracker]_by_avproh�1.avi
Формат : AVI
Формат/Информация : Audio Video Interleave
Размер файла : 51,9 Мбайт
Продолжительность : 3 м. 11 с.
Общий поток : 2281 Кбит/сек
Программа кодирования : VirtualDubMod 1.5.10.3 | www.virtualdub-fr.org || (build 2550/release)
Библиотека кодирования : VirtualDubMod build 2550/release

Видео
Идентификатор : 0
Формат : MPEG-4 Visual
Профиль формата : Advanced Simple@L5
Параметр BVOP формата : 1
Параметр QPel формата : Нет
Параметр GMC формата : Без точки перехода
Параметр матрицы формата : Выборочная
Идентификатор кодека : XVID
Идентификатор кодека/Подсказка : XviD
Продолжительность : 3 м. 11 с.
Битрейт : 2079 Кбит/сек
Ширина : 720 пикселей
Высота : 400 пикселей
Соотношение сторон : 16:9
Частота кадров : 25,000 кадров/сек
Цветовое пространство : YUV
Субдискретизация насыщенности : 4:2:0
Битовая глубина : 8 бит
Тип развёртки : Прогрессивная
Метод сжатия : С потерями
Бит/(Пиксели*Кадры) : 0.289
Размер потока : 47,3 Мбайт (91%)
Библиотека кодирования : XviD 65

Аудио
Идентификатор : 1
Формат : AC-3
Формат/Информация : Audio Coding 3
Расширение режима : CM (complete main)
Параметр Endianness формата : Big
Идентификатор кодека : 2000
Продолжительность : 3 м. 10 с.
Вид битрейта : Постоянный
Битрейт : 192 Кбит/сек
Каналы : 2 канала
Расположение каналов : Front: L R
Частота : 48,0 КГц
Битовая глубина : 16 бит
Метод сжатия : С потерями
Размер потока : 4,37 Мбайт (8%)
Выравнивание : Разделение по промежуткам
Продолжительность промежутка : 40 мс. (1,00 видеокадр)
Время предзагрузки промежутка : 500 мс.





   Похожие торренты   Торрент   Размер 
В этой теме нет новых непрочитанных сообщений. 1812: Энциклопедия великой войны (2012) [01-56 из 56] DVD9 от Youtracker | лицензия

1 | 4

7.49 ГБ

В этой теме нет новых непрочитанных сообщений. 1812 [01-04 из 04] (2012) DVDRip-AVC от Youtracker

4 | 3

2.91 ГБ

В этой теме нет новых непрочитанных сообщений. 1812 [01-04 из 04] (2012) DVDRip от Youtracker

68 | 2

2.91 ГБ

В этой теме нет новых непрочитанных сообщений. 1812: Уланская баллада (2012) DVDRip-AVC от Youtracker

95 | 5

1.46 ГБ

В этой теме нет новых непрочитанных сообщений. 1812: Уланская баллада (2012) DVDRip от Youtracker

2 | 9

744.74 МБ

В этой теме нет новых непрочитанных сообщений. 1812: Уланская баллада (2012) DVDRip от Youtracker

1 | 3

1.46 ГБ

В этой теме нет новых непрочитанных сообщений. 1812. Технология войны (2012) IPTVRip от Pshichko66

207 | 14

699.33 МБ




Вы не можете начинать темы
Вы не можете отвечать на сообщения
Вы не можете редактировать свои сообщения
Вы не можете удалять свои сообщения
Вы не можете добавлять вложения

Перейти:  
Для Мосгорсуда, Роскомнадзора и рекламодателей: mosgorsud-torrent[собачка]yandex.ru
 Вход
ppkBB3cker v.2 © 2008-2014 @ PPK
[ Time : 0.020s | 14 Queries | GZIP : Off ]

Торрент трекер RUTOR.IN, Не можете зайти на rutor.org? Какой новый адрес рутор? Какое зеркало рутор? Не работает rutor.org и зеркала? Тогда наш торрент специально для вас. Rutor.in неофициальное зеркало rutor. В случае если у Вас заблокирован rutor или вдруг Вы не можете на него зайти, то Вы без труда сможете скачать бесплатно и без рекламы последние новинки кино, игр, сериалов и прочего у нас, на Rutor.in. Не нужно использовать прокси, чтобы зайти на рутор, достаточно воспользоваться нашим ресурсом. Все новые фильмы, игры, сериалы, книги и музыка за 2013 и 2014 годы через торрент бесплатно. Скачивайте фильмы в хорошем качестве, игры для пк, xbox, playstation без регистрации. У нас вы найдете новые Зарубежные сериалы и Русские сериалы 2013, 2014, 2015 годов. Оставайтесь с нами, качайте любимые фильмы, игры, сериалы, книги и музыку.