img image001 image001 image001 image001 image001 image001 image001 image001 image001 image001 image001 image001 image001 image001 image001

Planets Sun Sun Sun
Статистика раздачи
Автор: Снежана | Размер: 2.91 ГБ | Добавлен: 27 июл 2013
Раздают: 68    Качают: 2
Скачать торрент
Скачать торрент
Описание торрента

СообщениеДобавлено: 27 июл 2013 

#77

Год выпуска: 2012
Страна: Россия
Студия: Стар-медиа
Жанр: документальный, исторический
Продолжительность: 4 х ~ 50 мин.

Перевод: не требуется
Субтитры: нет
Оригинальная аудиодорожка: русский

Режиссер: Павел Тупик

Голос за кадром: Сергей Чонишвили

Описание: Июньским утром 1812 года по трём мостам, наведённым через реку Неман, переправились полки самой мощной армии мира. Французы и поляки, итальянцы и австрийцы, пруссаки и испанцы, португальцы, голландцы, представители многочисленных германских княжеств…«Войска двунадесяти языков» — так называли эту армию русские. Возглавляемая императором Франции Наполеоном, она вторглась в пределы Российской империи.
На западной границе России находились три русские армии численностью не более 220 тысяч человек. Им противостояли 614 тысяч солдат Наполеона. Всего же французская армия насчитывала более 800 тысяч солдат разных национальностей. В 16 губерниях России создавались формирования народного ополчения, а в Украине, на Дону и на Урале — казачьи полки. Дворянство записывалось в армию. В храмах служили молебны о спасении России. Митрополит Платон вручил русскому императору чудотворный образ Сергия Радонежского, который Александр I передал московскому ополчению. Спустя всего несколько недель наполеоновского похода во многих французских полках уже числились сотни заболевших, отставших, пропавших без вести и дезертиров. А в первых же сражениях отчаянная храбрость и решимость русских стоять насмерть удивляли видавших виды французских солдат и офицеров…...





Исходник: 2 x DVD5 R5
Качество: DVDRip
Формат: AVI

Видео: 720x400 (16:9), 25 fps, XviD ~ 1583 kbps avg, 0.220 bit/pixel
Аудио: 48 kHz, AC3, 6 ch, 448.00 kbps

Раздача от:

Общее
Полное имя : 1812.2012.O.DVDRip.2.91GB_[Youtracker]_by_avproh�1.avi
Формат : AVI
Формат/Информация : Audio Video Interleave
Размер файла : 729 Мбайт
Продолжительность : 49 м.
Общий поток : 2040 Кбит/сек
Программа кодирования : VirtualDubMod 1.5.10.3 (build 2550/release)
Библиотека кодирования : VirtualDubMod build 2550/release

Видео
Идентификатор : 0
Формат : MPEG-4 Visual
Профиль формата : Advanced Simple@L5
Параметр BVOP формата : 1
Параметр QPel формата : Нет
Параметр GMC формата : Без точки перехода
Параметр матрицы формата : Выборочная
Идентификатор кодека : XVID
Идентификатор кодека/Подсказка : XviD
Продолжительность : 49 м.
Битрейт : 1583 Кбит/сек
Ширина : 720 пикселей
Высота : 400 пикселей
Соотношение сторон : 16:9
Частота кадров : 25,000 кадров/сек
Цветовое пространство : YUV
Субдискретизация насыщенности : 4:2:0
Битовая глубина : 8 бит
Тип развёртки : Прогрессивная
Метод сжатия : С потерями
Бит/(Пиксели*Кадры) : 0.220
Размер потока : 566 Мбайт (78%)
Библиотека кодирования : XviD 65

Аудио
Идентификатор : 1
Формат : AC-3
Формат/Информация : Audio Coding 3
Расширение режима : CM (complete main)
Параметр Endianness формата : Big
Идентификатор кодека : 2000
Продолжительность : 49 м.
Вид битрейта : Постоянный
Битрейт : 448 Кбит/сек
Каналы : 6 каналов
Расположение каналов : Front: L C R, Side: L R, LFE
Частота : 48,0 КГц
Битовая глубина : 16 бит
Метод сжатия : С потерями
Размер потока : 160 Мбайт (22%)
Выравнивание : Разделение по промежуткам
Продолжительность промежутка : 40 мс. (1,00 видеокадр)
Время предзагрузки промежутка : 500 мс.






   Похожие торренты   Торрент   Размер 
В этой теме нет новых непрочитанных сообщений. 1812 [01-04 из 04] (2012) DVDRip-AVC от Youtracker

4 | 3

2.91 ГБ

В этой теме нет новых непрочитанных сообщений. 1812: Уланская баллада (2012) DVDRip от Youtracker

2 | 9

744.74 МБ

В этой теме нет новых непрочитанных сообщений. 1812: Уланская баллада (2012) DVDRip от Youtracker

1 | 3

1.46 ГБ

В этой теме нет новых непрочитанных сообщений. 1812: Уланская баллада (2012) DVDRip-AVC от Youtracker

95 | 5

1.46 ГБ

В этой теме нет новых непрочитанных сообщений. 1812: Энциклопедия великой войны [01-56 из 56] (2012) DVDRip от Youtracker

8 | 21

2.9 ГБ

В этой теме нет новых непрочитанных сообщений. 1812 [01-04 из 04] (2012) 2xDVD5 от Youtracker | лицензия

3 | 2

8.44 ГБ

В этой теме нет новых непрочитанных сообщений. 1812: Уланская баллада (2012) BDRip от Youtracker

3 | 9

744.98 МБ




Вы не можете начинать темы
Вы не можете отвечать на сообщения
Вы не можете редактировать свои сообщения
Вы не можете удалять свои сообщения
Вы не можете добавлять вложения

Перейти:  
Для Мосгорсуда, Роскомнадзора и рекламодателей: mosgorsud-torrent[собачка]yandex.ru
 Вход
ppkBB3cker v.2 © 2008-2014 @ PPK
[ Time : 0.087s | 15 Queries | GZIP : Off ]

Торрент трекер RUTOR.IN, Не можете зайти на rutor.org? Какой новый адрес рутор? Какое зеркало рутор? Не работает rutor.org и зеркала? Тогда наш торрент специально для вас. Rutor.in неофициальное зеркало rutor. В случае если у Вас заблокирован rutor или вдруг Вы не можете на него зайти, то Вы без труда сможете скачать бесплатно и без рекламы последние новинки кино, игр, сериалов и прочего у нас, на Rutor.in. Не нужно использовать прокси, чтобы зайти на рутор, достаточно воспользоваться нашим ресурсом. Все новые фильмы, игры, сериалы, книги и музыка за 2013 и 2014 годы через торрент бесплатно. Скачивайте фильмы в хорошем качестве, игры для пк, xbox, playstation без регистрации. У нас вы найдете новые Зарубежные сериалы и Русские сериалы 2013, 2014, 2015 годов. Оставайтесь с нами, качайте любимые фильмы, игры, сериалы, книги и музыку.
cron