img image001 image001 image001 image001 image001 image001 image001 image001 image001 image001 image001 image001 image001 image001 image001

Planets Sun Sun Sun
Статистика раздачи
Автор: Снежана | Размер: 456.05 МБ | Добавлен: 26 июл 2013
Раздают: 0    Качают: 1
Скачать торрент
Скачать торрент
Описание торрента

СообщениеДобавлено: 26 июл 2013 

#77

Информация о фильме
Название: Пресс-конференция Президента РБ А.Г.Лукашенко СМИ регионов России [Телеверсия]
Год выхода: 2012
Жанр: интервью
Производство: Белтелерадиокомпания
Страна: Беларусь
Продолжительность программы: 01:35:51
Перевод: Не требуется

Описание: Кульминацией пресс-тура представителей российских региональных СМИ в Беларусь стала пресс-конференция Председателя Высшего Государственного Совета Союзного государства – Президента Республики Беларусь А.Лукашенко, которая в очередной раз подтвердила стремление Беларуси к дальнейшему развитию самого тесного взаимодействия с Россией во всех сферах.

Белорусский лидер ответил на вопросы российских журналистов. Разговор с главой белорусского государства получился разноплановым, деловым и откровенным. Журналисты получили из уст Президента ответы на самые актуальные вопросы. Спектр интересов репортеров – от экономики и политики до здоровья,демографии и развития белорусского спорта

Файл
Кодек: XviD
Качество: DVBRip
Видео: 640x480, 25 к/с, 4:3, 600 кбит/с
Звук: MP3, 56 кбит/с, 32 кгц, моно

Формат : AVI
Формат/Информация : Audio Video Interleave
Размер файла : 456 Мбайт
Продолжительность : 1 ч. 35 м.
Общий поток : 665 Кбит/сек
Программа кодирования : VirtualDubMod 1.5.10.2 (build 2540/release)
Библиотека кодирования : VirtualDubMod build 2540/release

Видео
Идентификатор : 0
Формат : MPEG-4 Visual
Профиль формата : Advanced Simple@L5
Параметр BVOP формата : 2
Параметр QPel формата : Да
Параметр GMC формата : Без точки перехода
Параметр матрицы формата : Default (MPEG)
Режим смешивания : Сжатый битовый поток
Идентификатор кодека : XVID
Идентификатор кодека/Подсказка : XviD
Продолжительность : 1 ч. 35 м.
Битрейт : 600 Кбит/сек
Ширина : 640 пикселей
Высота : 480 пикселей
Соотношение сторон : 4:3
Частота кадров : 25,000 кадров/сек
Цветовое пространство : YUV
Субдискретизация насыщенности : 4:2:0
Битовая глубина : 8 бит
Тип развёртки : Прогрессивная
Метод сжатия : С потерями
Бит/(Пиксели*Кадры) : 0.078
Размер потока : 411 Мбайт (90%)
Библиотека кодирования : XviD 64

Аудио
Идентификатор : 1
Формат : MPEG Audio
Версия формата : Version 1
Профиль формата : Layer 3
Идентификатор кодека : 55
Идентификатор кодека/Подсказка : MP3
Продолжительность : 1 ч. 35 м.
Вид битрейта : Постоянный
Битрейт : 56,0 Кбит/сек
Каналы : 1 канал
Частота : 32,0 КГц
Метод сжатия : С потерями
Размер потока : 38,4 Мбайт (8%)
Выравнивание : Соединение по промежуткам
Продолжительность промежутка : 40 мс. (1,00 видеокадр)
Время предзагрузки промежутка : 504 мс.





   Похожие торренты   Торрент   Размер 
В этой теме нет новых непрочитанных сообщений. Интервью Президента Беларуси Александра Лукашенко британской газете Индепендент [Телеверсия] (2012) DVBRip

0 | 2

344.34 МБ

В этой теме нет новых непрочитанных сообщений. Интервью Президента Беларуси Александра Лукашенко международному информационному агенству Рейтер [Телеверсия] (2012) DVBRip

0 | 2

75.62 МБ

В этой теме нет новых непрочитанных сообщений. Пресс-конференция Президента России В. В. Путина [Эфир от 20.12.2012] (2012) SATRip от РиперАМ

0 | 2

3.24 ГБ

В этой теме нет новых непрочитанных сообщений. Пресс-конференция Президента России В. В. Путина [Эфир от 19.12] (2013) IPTV

0 | 1

2.7 ГБ

В этой теме нет новых непрочитанных сообщений. Пресс-конференция Президента России В. В. Путина [Эфир от 19.12] (2013) HDTV 1080i

0 | 1

19.72 ГБ

В этой теме нет новых непрочитанных сообщений. Пресс-конференция Президента Российской Федерации В.В. Путина [20.12] (2012) DVB

0 | 2

8.4 ГБ

В этой теме нет новых непрочитанных сообщений. Новогоднее поздравление Президента Республики Беларусь Лукашенко А.Г. (2012) DVBRip

1 | 3

64.01 МБ




Вы не можете начинать темы
Вы не можете отвечать на сообщения
Вы не можете редактировать свои сообщения
Вы не можете удалять свои сообщения
Вы не можете добавлять вложения

Перейти:  
Для Мосгорсуда, Роскомнадзора и рекламодателей: mosgorsud-torrent[собачка]yandex.ru
 Вход
ppkBB3cker v.2 © 2008-2014 @ PPK
[ Time : 0.578s | 15 Queries | GZIP : Off ]

Торрент трекер RUTOR.IN, Не можете зайти на rutor.org? Какой новый адрес рутор? Какое зеркало рутор? Не работает rutor.org и зеркала? Тогда наш торрент специально для вас. Rutor.in неофициальное зеркало rutor. В случае если у Вас заблокирован rutor или вдруг Вы не можете на него зайти, то Вы без труда сможете скачать бесплатно и без рекламы последние новинки кино, игр, сериалов и прочего у нас, на Rutor.in. Не нужно использовать прокси, чтобы зайти на рутор, достаточно воспользоваться нашим ресурсом. Все новые фильмы, игры, сериалы, книги и музыка за 2013 и 2014 годы через торрент бесплатно. Скачивайте фильмы в хорошем качестве, игры для пк, xbox, playstation без регистрации. У нас вы найдете новые Зарубежные сериалы и Русские сериалы 2013, 2014, 2015 годов. Оставайтесь с нами, качайте любимые фильмы, игры, сериалы, книги и музыку.
cron