img image001 image001 image001 image001 image001 image001 image001 image001 image001 image001 image001 image001 image001 image001 image001

Planets Sun Sun Sun
Статистика раздачи
Автор: Снежана | Размер: 131.7 МБ | Добавлен: 26 июл 2013
Раздают: 4    Качают: 1
Скачать торрент
Скачать торрент
Описание торрента

СообщениеДобавлено: 26 июл 2013 

Правда про экстрасенсов

Название: Правда про экстрасенсов
Год выхода: 1999
Страна: Россия
Жанр: Документальный фильм
Продолжительность: 00:27:36
Перевод: Не требуется

Режиссер: Лариса Казерская

Описание: Бывший экстрасенс Сергей Бобровский открывает правду про колдунов, экстрасенсов, мудиумов, биоэнергетиков и т.д. Он расказывает какой силой они делают свои дела, узнайте правду что происходит с людьми во время сеансов целителей. Газеты писали откровения Сергея Бобровского "Я служил сатане".

Качество: TVRip
Формат: AVI
Видео кодек: DivX
Аудио кодек: MP3
Видео: 640x480 (1.33:1), 24.999 fps, DivX 3 MPEG-4 Fast-Motion ~529 kbps avg, 0.07 bit/pixel
Аудио: 44.100 kHz, MPEG Layer 3, 2 ch, ~127.70 kbps avg
Общее
Полное имя : D:/Фильмы/pravda_pro_ekstrasensov.avi
Формат : AVI
Формат/Информация : Audio Video Interleave
Размер файла : 132 Мбайт
Продолжительность : 27 м.
Общий поток : 667 Кбит/сек
Библиотека кодирования : VirtualDub build 11759/release

Видео
Идентификатор : 0
Формат : MPEG-4 Visual
Идентификатор кодека : DIV3
Идентификатор кодека/Подсказка : DivX 3 Low
Продолжительность : 27 м.
Битрейт : 529 Кбит/сек
Ширина : 640 пикселей
Высота : 480 пикселей
Соотношение сторон : 4:3
Частота кадров : 25,000 кадров/сек
Цветовое пространство : YUV
Субдискретизация насыщенности : 4:2:0
Битовая глубина : 8 бит
Метод сжатия : С потерями
Бит/(Пиксели*Кадры) : 0.069
Размер потока : 105 Мбайт (79%)

Аудио
Идентификатор : 1
Формат : MPEG Audio
Версия формата : Version 1
Профиль формата : Layer 3
Режим : Joint stereo
Расширение режима : MS Stereo
Идентификатор кодека : 55
Идентификатор кодека/Подсказка : MP3
Продолжительность : 27 м.
Вид битрейта : Постоянный
Битрейт : 128 Кбит/сек
Каналы : 2 канала
Частота : 44,1 КГц
Метод сжатия : С потерями
Задержка видео : 1 мс.
Размер потока : 25,2 Мбайт (19%)
Выравнивание : Разделение по промежуткам
Продолжительность промежутка : 40 мс. (1,00 видеокадр)
Время предзагрузки промежутка : 499 мс.




   Похожие торренты   Торрент   Размер 
В этой теме нет новых непрочитанных сообщений. Фара (1999) TVRip

20 | 4

699.22 МБ

В этой теме нет новых непрочитанных сообщений. Ван-Пис / One Piece [1-675 из xxx] (1999-...) TVRip, HDTVRip

5 | 66

174.78 ГБ

В этой теме нет новых непрочитанных сообщений. Последний миф [18 серий] (1999) TVRip

12 | 3

4.24 ГБ

В этой теме нет новых непрочитанных сообщений. Возвращение Титаника [01-02 из 02] (1999) TVRip

47 | 11

2.08 ГБ

В этой теме нет новых непрочитанных сообщений. Кадриль (1999) TVRip от Youtracker

236 | 12

1.46 ГБ

В этой теме нет новых непрочитанных сообщений. Ван-Пис / One Piece [1-675 из xxx] (1999-...) TVRip, HDTVRip

17 | 172

174.21 ГБ

В этой теме нет новых непрочитанных сообщений. Сейчас или никогда / Now and Again [01х01-06] (1999) TVRip

0 | 2

2.2 ГБ




Вы не можете начинать темы
Вы не можете отвечать на сообщения
Вы не можете редактировать свои сообщения
Вы не можете удалять свои сообщения
Вы не можете добавлять вложения

Перейти:  
Для Мосгорсуда, Роскомнадзора и рекламодателей: mosgorsud-torrent[собачка]yandex.ru
 Вход
ppkBB3cker v.2 © 2008-2014 @ PPK
[ Time : 0.047s | 15 Queries | GZIP : Off ]

cron